<?xml version="1.0" standalone="no"?>
<!DOCTYPE svg PUBLIC "-//W3C//DTD SVG 1.1//EN" "http://www.w3.org/Graphics/SVG/1.1/DTD/svg11.dtd" >
<svg xmlns="http://www.w3.org/2000/svg">
<metadata></metadata>
<defs>
<font id="yellowtailregular" horiz-adv-x="750" >
<font-face units-per-em="2048" ascent="1638" descent="-410" />
<missing-glyph horiz-adv-x="425" />
<glyph horiz-adv-x="2048" />
<glyph horiz-adv-x="2048" />
<glyph unicode="&#xd;" horiz-adv-x="2048" />
<glyph unicode=" "  horiz-adv-x="425" />
<glyph unicode="&#x09;" horiz-adv-x="425" />
<glyph unicode="&#xa0;" horiz-adv-x="425" />
<glyph unicode="!" horiz-adv-x="670" d="M150 -7q0 68 53 119.5t112 51.5q28 0 43 -16t15 -42q0 -58 -53.5 -115t-109.5 -57q-60 0 -60 59zM356 370q0 15 8 42q21 72 178 324t322 488.5t211 272.5q13 10 57 10q15 0 40 -5t37 -5q25 0 25 -16q0 -3 -4 -13q-185 -272 -315.5 -474t-374.5 -597q-21 -35 -41 -41 q-1 0 -2 -1t-3.5 -2.5t-6.5 -3t-14 -3t-23 -2.5h-10t-10 -2q-14 -10 -37 -10q-37 0 -37 38z" />
<glyph unicode="&#x22;" horiz-adv-x="692" d="M477 969q0 21 62.5 162.5t113.5 242.5q23 47 74 47q39 0 61.5 -14t22.5 -29q0 -34 -56.5 -148.5t-125.5 -217.5t-99 -103q-11 0 -32 21t-21 39zM742 965q0 30 87.5 202.5t92.5 202.5q7 47 79 47q81 0 81 -40q0 -54 -60 -169t-124 -206t-79 -91q-35 0 -56 14.5t-21 39.5z " />
<glyph unicode="#" horiz-adv-x="1112" d="M140 406q0 7 16.5 19t20.5 21q8 17 56.5 42.5t74.5 25.5q52 0 92 4q14 23 37.5 65.5t45 78.5t44.5 67q-58 -2 -98 -2q-31 0 -58.5 10.5t-27.5 30.5q0 6 14 16t16 19q8 17 48.5 36.5t70.5 20.5l129 6q43 57 112 162.5t105 153.5q12 18 19 18q10 0 24 -30.5t14 -56.5 q0 -14 -7 -28q-31 -59 -115 -213l145 5l180 278q12 12 16 12q11 0 32.5 -35.5t21.5 -66.5q0 -11 -2 -16q-18 -63 -80 -168h29q57 0 74 -4q11 -3 25.5 -19.5t23.5 -21.5q14 -12 14 -19q0 -22 -24 -33.5t-52 -11.5q-27 -2 -159 -12l-138 -228h80q70 0 80 -2q15 -4 31.5 -21.5 t25.5 -23.5q19 -12 19 -24q0 -22 -27.5 -34.5t-58.5 -14.5q-42 -5 -225 -15q-93 -185 -113 -280v-12q0 -19 -13 -19q-26 0 -59 61.5t-33 93.5q0 14 5.5 33.5t11 33t17.5 41t16 36.5q-41 -2 -181 -14q-117 -202 -155 -301q0 -2 -0.5 -8t-1.5 -9t-2.5 -6.5t-4.5 -5.5t-8 -2 q-27 0 -46.5 48.5t-19.5 86.5q0 16 9.5 41.5t20.5 45.5t30.5 54t28.5 50h-76q-30 0 -60 10.5t-30 30.5zM554 522h4q34 2 149 6q65 121 131 224l-151 -13q-9 -14 -57 -94.5t-76 -122.5z" />
<glyph unicode="$" horiz-adv-x="889" d="M150 219q0 56 35 92.5t84 36.5q43 0 43 -25q0 -5 -1 -13t-1 -11q0 -22 12 -28q13 26 45 92.5t51 103.5q-65 13 -108.5 37.5t-63.5 71.5q-12 26 -12 47q0 66 42 129t111 111t145 84t157 61q113 224 151 293q16 30 69.5 48.5t78.5 18.5q11 0 19 -7t8 -18q0 -5 -27 -56 l-28 -52.5t-40 -76t-59 -113.5q59 0 98 -9t54 -25.5t19.5 -27.5t6.5 -26v-5q0 -64 -27 -98q-22 -30 -73.5 -55t-98.5 -25q-19 0 -31.5 11t-15.5 12q-11 5 -11 22q0 7 10.5 21.5t14.5 30.5q-30 -5 -39 -5q-14 -28 -61.5 -122.5t-77.5 -153.5q80 -22 137 -49q45 -22 72 -62 t27 -75q0 -64 -48 -121.5t-121 -95.5t-153 -62.5t-151 -30.5q-79 -186 -95 -211q-19 -29 -74 -29q-20 0 -38 7t-19 16q-1 4 -5 14.5t-4 17.5q0 5 3 13q69 154 84 187q-48 17 -71 47t-23 63zM402 656q0 -13 21.5 -20.5t70.5 -16.5q47 95 92 184q-74 -38 -129 -84t-55 -63z M472 273q87 16 143.5 47t56.5 59t-121 55q-2 -4 -79 -161z" />
<glyph unicode="%" horiz-adv-x="1366" d="M242 636q0 84 50 192.5t124 201t165.5 157t167.5 64.5q41 0 76 -55t35 -113q-4 -35 -22.5 -90.5t-48.5 -123t-75 -134.5t-95.5 -123t-115 -91.5t-130.5 -37.5q-56 -2 -93.5 39.5t-37.5 113.5zM330 64q0 21 2 30q4 25 7 39.5t5.5 24.5t8 19t9 13.5t15 17.5t19.5 22 q244 287 516 586.5t367 408.5q3 2 8.5 7t10 8t10 6t10.5 3q18 0 18 -31q0 -34 -3 -53q0 -2 -1 -12t-2 -14t-4 -15t-6.5 -18.5t-10.5 -18.5t-16 -22q-72 -86 -231.5 -264.5t-314.5 -364t-330 -414.5q-4 -5 -12 -20t-16 -22t-20 -7q-19 0 -29 27.5t-10 63.5zM382 660 q0 -13 5.5 -25t14.5 -12q52 0 112.5 55t106.5 131t77 157t31 134q0 21 -13 21q-39 0 -119.5 -81t-147.5 -193.5t-67 -186.5zM762 126q0 84 48.5 192.5t120.5 201t162 157t166 64.5q43 0 75 -40t32 -95q0 -17 -14 -57t-3 -68q6 -14 -8.5 -57t-43 -99.5t-73 -118.5 t-94.5 -113.5t-113 -85.5t-124 -34q-57 0 -94 41t-37 112zM902 150q0 -13 5.5 -25t14.5 -12q60 0 137 91t128.5 204.5t51.5 181.5q0 21 -13 21q-39 0 -117 -81t-142.5 -193.5t-64.5 -186.5z" />
<glyph unicode="&#x26;" horiz-adv-x="924" d="M219 423q0 46 16 88t39 71.5t55 56t55.5 41t48.5 27.5q-81 46 -81 134q0 59 43.5 116.5t114.5 101.5t157.5 76.5t175.5 46.5q120 235 125 243q17 31 71 49.5t78 18.5q9 0 17.5 -8t8.5 -19q0 -6 -3 -12q-1 -3 -7 -14t-17.5 -33t-26.5 -50t-39 -73.5t-50 -95.5 q47 -2 82 -23t35 -57q0 -45 -26 -80.5t-64.5 -55.5t-77.5 -30t-72 -10h-10l-39 -78q2 0 5.5 0.5t5.5 0.5q13 0 32 -7q14 -5 28.5 -36t14.5 -46q0 -9 -7 -17.5t-20 -17.5t-16 -12q-14 -13 -34 -21t-35.5 -11t-35 -6.5t-28.5 -6.5q-16 -32 -35.5 -70t-44 -88.5t-39.5 -79.5 q105 38 212.5 101.5t125.5 93.5q1 1 3 5t3.5 6t3.5 5.5t4 5t4.5 4t4.5 4t5 2.5t6 1q7 0 19 -8.5t24.5 -29.5t12.5 -47q0 -64 -74.5 -138t-196 -130t-245.5 -69q-98 -220 -106 -234q-9 -14 -25.5 -21.5t-25.5 -8t-26 -0.5q-19 0 -34.5 7.5t-17.5 16.5q-1 4 -5 14t-4 16t3 13 q33 84 90 201q-74 16 -117.5 63t-43.5 114zM413 453q0 -45 40 -50q14 27 31.5 62.5t36.5 74t33 66.5q-76 -38 -108.5 -78t-32.5 -75zM517 836q0 -16 37 -16q3 0 16 1.5t40.5 4t55.5 5.5q17 32 45 88.5t37 73.5q-56 -24 -110.5 -56.5t-87.5 -60t-33 -40.5z" />
<glyph unicode="'" horiz-adv-x="391" d="M456 969q0 39 207 405q27 47 94 47q39 0 55.5 -11.5t16.5 -27.5q0 -34 -59.5 -149.5t-133 -219.5t-106.5 -104q-13 0 -43.5 21t-30.5 39z" />
<glyph unicode="(" d="M173 -41q0 247 59 477t160 413.5t236.5 338.5t286 264t311.5 178q70 31 129 31q20 0 30.5 -39t10.5 -68q0 -15 -15.5 -26t-57 -26t-46.5 -17q-252 -104 -460.5 -337t-329 -532t-127.5 -600q-2 -65 5.5 -133t16.5 -112t14.5 -81t0 -54t-26.5 -17q-16 0 -49 33.5t-66 82 t-57.5 111t-24.5 113.5z" />
<glyph unicode=")" d="M-211 -258q0 18 13 29.5t27.5 15t36.5 6t29 4.5q117 31 247.5 135.5t249.5 262.5t215.5 344t154 399t57.5 408q0 46 -4 114t-4 89q0 51 11 74q10 21 105 21q25 0 41 -96.5t16 -245.5q0 -182 -49.5 -383t-132 -383t-192.5 -349.5t-227 -289t-240.5 -194t-229.5 -72.5 q-27 0 -44 3t-39.5 23t-35.5 58q-5 13 -5 27z" />
<glyph unicode="*" d="M437 1010q0 79 207 147l-33 43q-23 14 -41 47t-18 56q0 24 13 43.5t34 19.5q34 0 84 -59l59 -82q35 63 60 131q23 51 83 51q26 0 39 -9t13 -20q0 -21 -72 -153q18 4 50 11.5t48 11.5t33.5 11t26.5 15q10 16 20 16q11 0 19 -19t8 -32q0 -104 -205 -164q35 -43 49 -71 t14 -62q0 -44 -17 -75t-48 -31q-24 0 -41 36q-41 63 -84 134q-43 -72 -78.5 -121t-44.5 -49q-12 0 -32 14t-23 31q0 12 65 135q-117 -23 -155 -23q-33 0 -33 17z" />
<glyph unicode="+" horiz-adv-x="850" d="M211 600q0 4 2 10q5 13 13.5 36.5t12 32t11.5 20.5t18 16t25 4q80 0 215 -6q4 8 48 84t75 137q1 1 4 10t6.5 15.5t10 14.5t17 12.5t23.5 4.5q18 0 43 -20.5t25 -46.5q0 -19 -13 -46t-47 -81.5t-53 -89.5q164 -7 236 -7q15 0 29 -10.5t14 -27.5q0 -14 -8 -27 q-4 -7 -11.5 -20.5t-11 -20t-11.5 -16t-16 -14t-20.5 -8t-28.5 -3.5q-40 0 -119.5 4.5t-117.5 5.5q-42 -102 -64 -219q-1 -5 -3 -14t-3 -14.5t-3 -13.5t-4 -12.5t-5 -9t-7.5 -6.5t-9.5 -2q-6 0 -12 3t-12 9t-10.5 11.5t-11.5 14.5t-11 14q-3 4 -11 13.5t-11 13t-8 10 t-6.5 11.5t-1.5 9t1 6q6 14 24.5 56t28.5 68t19 54q-152 -4 -201 -4q-22 0 -35.5 11.5t-13.5 27.5z" />
<glyph unicode="," horiz-adv-x="487" d="M84 -148q0 14 9 21q7 5 39.5 51.5t38.5 61.5q-16 15 -16 40q0 42 38.5 82t91.5 40t77.5 -29t24.5 -69q0 -54 -28 -91q-39 -53 -105.5 -102.5t-111.5 -49.5q-19 0 -31.5 12t-15.5 13q-11 3 -11 20z" />
<glyph unicode="-" horiz-adv-x="650" d="M150 451q0 10 10.5 25t12.5 24q5 23 37.5 53t49.5 32q28 3 85 7t85 7q86 6 146 6q46 0 53 -4q10 -7 20.5 -28.5t16.5 -28.5q12 -13 12 -30q0 -28 -18 -44.5t-38 -18.5q-25 -5 -53 -8.5t-62.5 -7t-53.5 -5.5q-43 -6 -83 -14t-72 -12t-84 -5h-5q-20 -2 -39.5 11t-19.5 41z " />
<glyph unicode="." horiz-adv-x="475" d="M150 10q0 61 48 108.5t108 47.5q33 0 51 -19t18 -49q0 -56 -47 -108.5t-106 -52.5q-72 0 -72 73z" />
<glyph unicode="/" horiz-adv-x="775" d="M-159 -129q0 71 7 98t36 68q99 142 233.5 305t297.5 340.5t295.5 316.5t317.5 330t273 283l7 7t8.5 8t9 6t10.5 3q25 0 25 -84q0 -2 0.5 -11.5t0 -14.5l-1.5 -15t-3.5 -18t-8 -19t-12.5 -22q-71 -103 -214 -265.5t-304.5 -336t-326.5 -354.5t-316 -367.5t-238 -329.5 q-3 -5 -9 -20.5t-13 -22t-19 -6.5q-23 0 -39 41t-16 80z" />
<glyph unicode="0" horiz-adv-x="875" d="M59 146q-3 90 42.5 210t121.5 239t176.5 235.5t203.5 205.5t206 144t181 55q66 0 100.5 -65.5t20.5 -151.5q-18 -93 -83 -193q1 -4 3 -14q0 -19 -2 -31q-9 -45 -47.5 -121.5t-97.5 -166.5t-138.5 -182t-163 -167t-178.5 -122.5t-179 -47.5q-70 0 -116.5 46.5t-49.5 126.5 zM245 264q-12 -42 3.5 -79.5t54.5 -37.5q56 0 141 66t167 158.5t173 213.5q-54 -31 -91 -31q-28 0 -45 23.5t-19 55.5q0 54 30 66q125 49 205 152t77 195q-2 32 -35 32q-53 0 -154.5 -88.5t-203.5 -212.5t-189.5 -268t-113.5 -245z" />
<glyph unicode="1" horiz-adv-x="467" d="M-9 67q0 2 1 3q35 80 224 394.5t313 489.5q-36 -25 -87 -67q-8 -6 -14 -6q-7 0 -11 8.5t-7 20.5t-5 16q-12 17 -12 23q2 9 8 24q8 21 76.5 84t147 119.5t106.5 56.5q26 0 56 -31.5t30 -59.5q-1 -11 -46 -82t-134.5 -211t-158.5 -253q-311 -513 -341 -600q0 -1 -12.5 -6 t-30 -10t-27.5 -5q-5 0 -10 9t-16 27.5t-26 35.5q-3 5 -13.5 11t-10.5 9z" />
<glyph unicode="2" horiz-adv-x="770" d="M10 64q0 23 19 61q3 7 125 141q30 32 156.5 143.5t172.5 163.5q53 59 177 188t184 200.5t60 101.5q0 19 -33 19q-25 0 -66.5 -17.5t-96 -52.5t-121.5 -100.5t-127 -149.5q-6 -5 -6 -21q-8 -20 -34 -33t-45 -13q-13 0 -37.5 10.5t-39.5 25.5q-9 7 -9 35q0 34 35 91.5 t98 122t140.5 122t173.5 95.5t185 38q45 0 77.5 -29.5t45.5 -64t13 -63.5q0 -58 -62.5 -154t-169.5 -211t-202 -209t-211 -202.5t-145 -137.5q86 17 200 34t158 17q23 0 31.5 -6.5t10.5 -16t7 -12.5q11 -6 19.5 -41t9.5 -57v-9q0 -35 -26 -40q-96 -20 -312.5 -36t-257.5 -22 q-21 0 -67 23q-2 2 -8.5 12t-14 26.5t-7.5 27.5z" />
<glyph unicode="3" horiz-adv-x="841" d="M65 107q0 47 38.5 92t73.5 45q9 0 13.5 -14.5t6.5 -31.5t14.5 -31.5t35.5 -14.5q77 0 180.5 41t178.5 99.5t75 104.5q-2 43 -66.5 70t-183.5 27q-21 0 -34 23.5t-13 53.5q0 25 14.5 47t31.5 34.5t54 36t57 38.5q9 6 46 33t61 45t63 48.5t65 54.5t52.5 51.5t40 51 t13.5 42.5q0 22 -30 22q-42 0 -133.5 -47t-192.5 -129t-150 -164q-2 -3 -5 -10t-5 -10.5t-7 -6.5t-12 -3q-33 0 -55 24t-24 56q0 36 34 91t96 114t138 110.5t170 85t182 33.5q72 0 108 -39t36 -94q0 -83 -96 -203t-306 -258q81 0 149 -49.5t68 -124.5q0 -2 -0.5 -5t-0.5 -4 q-9 -107 -109 -216.5t-247.5 -180t-287.5 -70.5q-68 0 -102.5 42.5t-34.5 89.5z" />
<glyph unicode="4" horiz-adv-x="900" d="M129 466q0 40 6 54q36 84 234.5 261t400 321t256.5 153q1 0 8 -2.5t26 -9t36 -12.5q6 -4 12 -17.5t11 -15.5q8 -16 8 -28q0 -3 -2 -5q-212 -326 -346 -567q208 21 240 21q9 0 9 -9q0 -10 -15 -32q-86 -124 -112 -136q-33 -7 -222 -24q-116 -205 -242 -438 q-8 -19 -37.5 -29.5t-68.5 -17.5t-52 -13q-11 0 -24 12.5t-14 24.5q45 96 246 446q-310 -22 -325 -22q-33 0 -33 85zM317 535q121 23 272 43q139 235 312 479q-106 -88 -327 -289t-257 -233z" />
<glyph unicode="5" horiz-adv-x="795" d="M8 121q0 54 23.5 94.5t60.5 40.5q22 0 22 -35q4 -81 100 -81q73 0 172 46.5t173.5 121.5t74.5 145q-4 71 -156 71q-91 0 -182 -20q-12 -3 -16 -3q-5 0 -7.5 2t-9 14.5t-17.5 39.5q-5 5 -5 17q0 16 12 44q31 74 161 284.5t149 232.5q26 30 59 30q36 9 135.5 21t180.5 20 l81 8q22 0 50 -43t28 -62q0 -15 -5.5 -38t-10.5 -27q-10 -8 -33 -15t-57.5 -13t-67.5 -10.5t-81 -9t-78.5 -7.5t-79.5 -7t-66 -5q-54 -87 -168 -281q50 10 102 10q97 0 165 -40t74 -132q0 -97 -43 -189t-111 -159.5t-150 -119t-162.5 -77.5t-144.5 -26q-172 0 -172 158z" />
<glyph unicode="6" horiz-adv-x="841" d="M75 131q0 11 1 17q26 287 318 657q89 112 200.5 205.5t206.5 146t167 81t105 28.5q82 0 82 -94q0 -44 -18 -50q-207 -68 -375 -185t-327 -312q98 68 169 99.5t132 31.5q49 0 91 -35t45 -101q0 -74 -36 -164t-101 -176t-145.5 -157.5t-179.5 -115.5t-193 -44 q-57 0 -99.5 46t-42.5 122zM227 164q0 -51 32 -51q33 0 102.5 39.5t150.5 115.5q79 73 131.5 153.5t52.5 131.5q-2 28 -20.5 42.5t-40.5 14.5q-59 0 -154 -50t-149 -99q-105 -195 -105 -297z" />
<glyph unicode="7" horiz-adv-x="700" d="M147 17q0 6 1.5 13.5t6 18t8.5 19t12 26t13 29.5q36 82 172.5 277t290.5 387.5t234 265.5q-57 -4 -188.5 -17.5t-238 -25t-116.5 -11.5q-21 0 -21 17q0 13 14 40t15 34q4 9 75 59q1 1 16.5 18.5t39.5 28.5q20 9 202 22t286 14q8 0 19.5 -0.5t15.5 -0.5q20 0 40.5 -39 t20.5 -67q0 -20 -11 -46q0 -1 -5 -7.5t-15.5 -21t-21.5 -30.5q-36 -51 -176.5 -230t-202.5 -266q-224 -317 -346 -555q-11 -21 -38 -21q-7 0 -20 3.5t-19 3.5q-14 0 -38.5 21t-24.5 41z" />
<glyph unicode="8" horiz-adv-x="820" d="M20 140q0 2 0.5 8t0.5 9q10 69 52.5 142.5t106 138t123.5 114.5t125 95q-49 86 -49 185q0 8 2 26q16 98 76 189t150 148.5t184 57.5q126 0 168 -83q10 -25 10 -33q0 -14 -27 -88q1 1 29.5 22t56 41t59.5 43t55 37t28 14q8 0 24.5 1.5t23.5 1.5q36 0 50 -6t14 -26 q0 -35 -27 -59q-33 -29 -100.5 -77.5t-95.5 -71.5q-79 -60 -221 -172t-190 -149l-3 -9q9 -12 40.5 -53t44 -60.5t26.5 -55.5t14 -71v-19q-8 -90 -58.5 -169t-124.5 -131t-162 -81.5t-172 -29.5q-60 0 -110.5 16t-86.5 56t-36 99zM217 209q1 -36 29.5 -54.5t69.5 -18.5 q57 0 124.5 27.5t119 81t51.5 114.5q0 28 -15.5 60.5t-31 52.5t-41.5 49h1q-7 9 -18 19l-7 1q-38 -30 -79.5 -66t-90.5 -85.5t-80.5 -98t-31.5 -82.5zM542 862q0 -46 26 -114q130 110 304 247q-45 83 -123 83q-77 0 -142 -66t-65 -150z" />
<glyph unicode="9" horiz-adv-x="818" d="M25 75q0 25 33 36q124 42 281.5 165t313.5 295l-5 6q-94 -50 -160.5 -71t-94.5 -21q-12 0 -25 2.5t-31.5 11t-32.5 21.5t-25 38t-13 58q0 89 36.5 177.5t95 158.5t132.5 131.5t149 102t143 63.5t117 23q74 0 114.5 -43.5t40.5 -123.5q0 -22 -1 -33q-9 -105 -93 -255.5 t-206.5 -296.5t-254.5 -275t-250 -208.5t-180 -79.5q-26 0 -40 16.5t-27 50.5q-17 31 -17 51zM434 703q0 -43 56 -43q85 0 290 108q81 108 125.5 182t44.5 121q0 23 -17.5 40t-38.5 17q-69 0 -180.5 -81t-195.5 -183.5t-84 -160.5z" />
<glyph unicode=":" horiz-adv-x="692" d="M170 10q0 61 48 108.5t108 47.5q33 0 51 -19t18 -49q0 -56 -47 -108.5t-106 -52.5q-72 0 -72 73zM466 561q0 61 48.5 109.5t108.5 48.5q34 0 51.5 -19.5t17.5 -50.5q0 -54 -48 -107t-105 -53q-73 0 -73 72z" />
<glyph unicode=";" horiz-adv-x="703" d="M100 -148q0 14 9 21q7 5 39.5 51.5t38.5 61.5q-16 15 -16 40q0 42 38.5 82t91.5 40q46 0 74 -28t28 -70q0 -54 -28 -91q-39 -53 -105.5 -102.5t-111.5 -49.5q-19 0 -31.5 12t-15.5 13q-11 3 -11 20zM477 561q0 61 47.5 109.5t106.5 48.5q36 0 54 -19t18 -51 q0 -55 -48 -107.5t-106 -52.5q-72 0 -72 72z" />
<glyph unicode="&#x3c;" horiz-adv-x="700" d="M302 665q0 34 52 68q7 4 39 25t41.5 27t40 25.5t44 28.5t42 28.5t45.5 32t44.5 32t48.5 35.5t46.5 36.5t50.5 40.5l10 10t14.5 11.5t14.5 3.5q35 0 35 -104q0 -37 -6.5 -55t-28.5 -36q-47 -37 -182.5 -109.5t-202.5 -117.5q14 -72 44.5 -166t43.5 -114q3 -6 3 -18 q0 -45 -29 -123.5t-48 -78.5q-21 0 -29 19t-12 57q-19 101 -37 172.5t-30 109t-47 140.5q-7 8 -7 20z" />
<glyph unicode="=" horiz-adv-x="879" d="M150 449q0 8 15 23t18 24q7 21 53.5 49t71.5 30q194 15 411 15q66 0 76 -4q14 -6 29 -26.5t24 -27.5q17 -14 17 -28q0 -26 -26 -42t-54 -18q-8 -1 -79 -8.5t-144.5 -15t-166 -14t-153.5 -7.5h-14q-28 0 -53 12.5t-25 37.5zM273 735q0 9 15 24t18 23q7 22 53 50t72 30 q200 15 452 15q66 0 76 -5q14 -6 29 -26t24 -27q17 -14 17 -28q0 -27 -26.5 -43t-53.5 -17q-10 -1 -124 -12t-246.5 -21.5t-213.5 -11.5h-14q-28 0 -53 12.5t-25 36.5z" />
<glyph unicode="&#x3e;" horiz-adv-x="700" d="M135 293q0 48 90 123q32 25 78 55t79.5 49t97 55t87.5 50q-19 45 -40 101.5t-38 104t-22 60.5q-2 5 -3 11.5t-1.5 11.5t1 12.5t2.5 12t4 13.5t4.5 13t6 14t6 13.5t7 15t6.5 14.5q15 33 35 59.5t34 26.5q11 0 14.5 -5.5t4 -22t2.5 -25.5q23 -151 40 -222.5t60 -195.5 q8 -24 8 -41q0 -43 -47 -72q-53 -25 -111.5 -61t-97.5 -64t-110.5 -81t-108.5 -80q-9 -6 -26.5 -28t-26.5 -22q-35 0 -35 105z" />
<glyph unicode="?" horiz-adv-x="1098" d="M270 4q0 61 51.5 115.5t112.5 54.5q26 0 41.5 -15t15.5 -43q0 -56 -52.5 -114t-109.5 -58q-59 0 -59 60zM373 1059q0 82 61.5 159t155.5 129t205 83.5t210 31.5q113 0 205 -33.5t150 -103.5t58 -166q0 -80 -30 -149t-82 -121t-116 -96t-138.5 -83.5t-143 -75.5 t-136.5 -80.5t-112 -88.5q-19 -20 -22.5 -45.5t-0.5 -41.5t-11 -28t-54 -12q-11 0 -25.5 2.5t-36 9t-35.5 23.5t-14 42q0 95 82 170q49 46 144 105t185 112t177 112t140 124t53 128q0 64 -52 97.5t-171 33.5q-91 0 -197 -38t-179.5 -99t-73.5 -119q0 -4 10.5 -9.5t14.5 -5.5 q16 0 34 11.5t21 11.5q6 0 10.5 -6t4.5 -13q0 -46 -41 -70t-112 -24q-43 0 -90.5 39t-47.5 84z" />
<glyph unicode="@" horiz-adv-x="1471" d="M200 369q0 132 53.5 269.5t143.5 256t213 224.5t259 181t284 118.5t285 43.5q63 0 121.5 -32.5t97 -80.5t61.5 -102t23 -98q0 -65 -21.5 -150t-59 -174t-92 -175t-115.5 -153t-134.5 -108t-144.5 -41q-64 0 -97 42.5t-33 102.5q0 42 17 84q-72 -95 -165.5 -160.5 t-158.5 -65.5q-66 0 -108 49.5t-42 112.5q0 75 36.5 155t95.5 146.5t129 120t142 83.5t129 30q45 0 64.5 -14t29.5 -41q19 30 42.5 39t55.5 9q66 0 66 -46q0 -24 -12 -36q-11 -14 -49 -74t-84 -162.5t-46 -167.5q0 -47 27 -47q40 0 123.5 109.5t153.5 258.5t70 242 q0 47 -20.5 82.5t-49.5 53t-52 25.5t-36 8q-140 0 -312 -64.5t-317 -197.5q-379 -347 -379 -653q0 -57 32 -114.5t99 -99t152 -41.5q210 0 443 154q2 1 4 4.5t5 3.5q12 0 19.5 -11.5t7.5 -30.5v-14v-8.5t-0.5 -6.5t-1 -8t-3 -14t-4.5 -24q-14 -71 -156.5 -138.5 t-348.5 -67.5q-88 0 -162 24t-125 64t-86.5 93.5t-52 112t-16.5 119.5zM745 523q0 -21 18 -21q44 0 107 56.5t113 123.5t110.5 151.5t82.5 110.5q-74 3 -178 -75t-178.5 -180t-74.5 -166z" />
<glyph unicode="A" horiz-adv-x="1203" d="M60 51q0 100 258 428q-99 0 -121 -2q-16 -1 -40.5 -5.5t-33.5 -4.5q-14 0 -20.5 9t-6.5 34q0 48 53.5 82.5t143.5 34.5q7 0 25.5 1t53 2.5t73.5 2.5q218 256 456 475t412 307q28 14 41 13q20 0 43 -25q4 9 9 18t7.5 14.5t5.5 11.5t5 9t3.5 6t3 4.5l3 3t3.5 2t4 0.5h5 q15 0 61 -32t46 -60q0 -9 -2 -14q-37 -111 -273.5 -633t-286.5 -614q-25 -45 -39 -68t-37.5 -51.5t-49.5 -40.5t-58 -12q-26 0 -46 -6.5t-24 -6.5q-32 0 -32 15q0 3 10 31q7 15 227 479q-235 9 -413 14q-171 -215 -310 -450q-17 -33 -32 -46.5t-38 -13.5q-29 0 -59 26.5 t-30 61.5zM660 633q177 -4 358 -15q182 383 309 644q-365 -277 -667 -629z" />
<glyph unicode="B" horiz-adv-x="1400" d="M220 63q0 23 9 46q45 118 317.5 552.5t333.5 503.5q17 21 49.5 30t95.5 9q45 0 45 -20q0 -10 -12 -31q-62 -101 -158 -252.5t-102 -161.5q139 40 284.5 109.5t254 157.5t108.5 159q0 33 -22.5 57t-60.5 36.5t-80.5 18t-90.5 5.5q-98 0 -198.5 -21.5t-176.5 -53 t-137 -66.5t-93 -64t-32 -43q0 -10 10 -10q5 0 15.5 3.5t13.5 3.5q6 0 6 -6q0 -17 -34.5 -43t-77.5 -26q-54 0 -81.5 28t-27.5 73q0 95 124 188.5t305 150t347 56.5q243 0 361.5 -79t118.5 -212q0 -61 -32.5 -122.5t-84.5 -111.5t-119.5 -95.5t-134.5 -78t-133 -55.5 q46 -5 90 -17t87 -34t75 -51t51.5 -71t19.5 -91q0 -100 -94.5 -202.5t-251.5 -170t-321 -67.5q-71 0 -128.5 12.5t-91.5 30.5t-57.5 40t-32 39t-8.5 29q0 29 15 62q-73 -132 -107 -199q-15 -30 -60 -30q-46 0 -71 24t-25 61zM505 250q47 65 137 65q60 0 60 -15q0 -6 -13 -11 t-26.5 -15t-13.5 -30q0 -12 6 -23t21 -23t47.5 -19t78.5 -7q74 0 147 20.5t128.5 53t99.5 70t67 73t23 60.5q0 17 -18.5 36.5t-55 40t-104.5 34t-154 13.5q-67 0 -110.5 -6.5t-61 -13.5t-19.5 -7q-10 0 -18.5 8.5t-21.5 33.5q-95 -152 -199 -338z" />
<glyph unicode="C" horiz-adv-x="1164" d="M164 309q0 121 50.5 255.5t136 257t202 235.5t242.5 196t264 132t262 49q40 0 85 -16.5t81.5 -54.5t36.5 -87q0 -66 -56 -153.5t-132.5 -159.5t-158 -122t-130.5 -50t-84 30.5t-35 61.5q0 17 10.5 46t26.5 29q-4 -5 -4 -10q0 -12 30 -12q39 0 120 61t146.5 137t65.5 114 q0 26 -35 26q-94 0 -259.5 -87.5t-305.5 -215.5q-162 -148 -273.5 -337.5t-111.5 -340.5q0 -63 33.5 -101t101.5 -38q71 0 166 40t180.5 98t161.5 119t121.5 107t46.5 57q1 8 9 8q10 0 17 -10.5t7 -28.5q0 -38 -17 -132q-5 -25 -41 -72.5t-103 -107t-150.5 -112t-197 -88.5 t-227.5 -36q-103 0 -192.5 91.5t-89.5 221.5z" />
<glyph unicode="D" horiz-adv-x="1607" d="M300 121q0 33 8 65q30 107 269.5 464.5t400.5 576.5q11 15 113 22q42 0 58 -6t16 -23q0 -14 -23 -46q-81 -113 -363 -547.5t-282 -445.5q0 -13 57 -13q120 0 249.5 37.5t243.5 98.5t218 141.5t178 164.5t118 168.5t44 153.5q0 148 -130.5 248t-357.5 100q-153 0 -289 -51 t-200 -101q-38 -30 -38 -44q0 -8 12 -8q11 0 25.5 4t17.5 4q9 0 9 -4t-18 -15q-16 -9 -26.5 -20.5t-18.5 -16.5q-76 -46 -110 -48q-5 0 -12 1.5t-9 1.5h-4q-25 0 -51.5 20t-26.5 62q0 60 55.5 125t150.5 119.5t236.5 89.5t298.5 35q321 0 501.5 -126.5t180.5 -328.5 q0 -126 -56 -252t-150 -232.5t-221 -199t-266.5 -157t-288.5 -101.5t-285 -37q-71 0 -114.5 7t-56 14.5t-25 22t-19.5 19.5q-19 12 -19 58z" />
<glyph unicode="E" horiz-adv-x="1232" d="M186 253q0 63 29 129t72.5 120t102 106.5t111 89t105.5 66.5q-206 47 -206 212q0 64 38 127.5t101.5 115.5t146 96.5t170 75t175.5 48t161 17.5q30 0 67 -3.5t63.5 -8t36.5 -7.5q37 -18 60 -50.5t23 -51.5q0 -27 -5 -45t-17.5 -28.5t-21.5 -15.5t-28.5 -11t-27.5 -10 q-78 -33 -164 -33q-26 0 -50.5 7.5t-28.5 18.5q2 26 22 60q-95 -4 -197 -38.5t-176.5 -81t-122.5 -96.5t-48 -84q0 -20 23 -33.5t61 -20t72 -9t71 -2.5q56 0 83 12q24 11 59.5 19t68 11.5t60.5 3.5q44 0 67 -14t23 -39q0 -14 -9 -39.5t-19.5 -46.5t-16.5 -27 q-21 -19 -183 -46q-47 -8 -59 -3q-124 -61 -219.5 -128t-148.5 -121.5t-87 -108t-45 -88.5t-11 -63q0 -99 137 -99q107 0 272 84t292.5 203.5t127.5 207.5q0 11 10.5 18t20 8.5t17.5 1.5q36 0 63.5 -25.5t27.5 -89.5q0 -54 -47 -128.5t-131 -151t-187 -142.5t-228.5 -108 t-241.5 -42q-58 0 -111.5 16.5t-100 49t-74.5 88.5t-28 127z" />
<glyph unicode="F" horiz-adv-x="1189" d="M360 582q0 8 4 18q14 32 28.5 51t16.5 23q8 16 29.5 37t41.5 26q13 3 64.5 8t148 10.5t191.5 6.5q200 303 326 450q-187 -34 -459 -34q-369 0 -369 165q0 47 47.5 82t122.5 35q70 0 70 -17q0 -9 -17 -9q-28 0 -47.5 -16.5t-19.5 -31.5q0 -10 23.5 -19t98 -17.5 t187.5 -8.5q296 0 535 37q79 65 148.5 98t154.5 33q59 0 86 -39q17 -25 18 -38q0 -19 -24 -45t-67 -52.5t-113.5 -47.5t-151.5 -27q-175 -221 -361 -500q77 -3 148 -12q63 -8 63 -52q0 -18 -57 -69q-6 -7 -15 -20.5t-16.5 -19t-21.5 -5.5q-9 0 -29 4q-78 3 -117 3 q-10 0 -31.5 -0.5t-33.5 -0.5q-352 -548 -361 -565q-14 -26 -27.5 -37t-40.5 -11q-13 0 -40 5q-45 8 -63 17.5t-18 29.5q0 9 9 36q24 67 336 517q-203 -10 -322 -21q-1 0 -19 -6t-28 -6q-13 0 -20.5 10.5t-7.5 24.5zM1619 1434l39 16q-16 -5 -39 -16z" />
<glyph unicode="G" horiz-adv-x="1295" d="M110 270q0 110 61 243t163 262.5t242 252.5t291 216t318 149.5t315 56.5q51 0 96 -17t64 -36q45 -45 45 -154q0 -51 -65 -123t-160.5 -137t-189.5 -103q21 7 43 7q74 0 98 -27q6 -6 6 -13q0 -9 -27 -40q-281 -325 -516 -645q96 75 170 143q41 37 100 37q22 0 37 -5 t20.5 -11t5.5 -11q0 -10 -13 -20q-167 -146 -545 -426q-65 -73 -328 -348q-47 -48 -120 -48q-41 0 -68 16.5t-27 45.5q0 27 43 86q62 91 303 275q53 59 183 200.5t199 221t98 122.5q-37 -35 -62 -58t-78 -68.5t-94.5 -77t-101 -70.5t-109.5 -63t-107 -41t-106 -17 q-81 0 -132.5 57t-51.5 168zM280 299q0 -30 17.5 -53t51.5 -23q105 0 338.5 161t536.5 439q4 4 13.5 15.5t20.5 21.5t25 17q-82 -33 -139 -33q-47 0 -81 23t-34 57q0 45 35 80t57 35q6 0 6 -5q0 -2 -2.5 -9t-2.5 -11q0 -17 23 -17q4 0 16 2q72 13 164.5 64.5t157.5 113.5 t65 103q0 35 -62 35q-110 0 -247.5 -54t-268.5 -140t-258 -197.5t-221.5 -223t-152.5 -218.5t-58 -183z" />
<glyph unicode="H" horiz-adv-x="1536" d="M174 40q0 22 15 58t29 60q45 76 159.5 247.5t114.5 172.5q-19 1 -44.5 1.5t-39.5 1t-20 1.5q-34 6 -56 27t-34 69q-11 41 -10 54q0 27 23 27q6 0 14 -3.5t12 -3.5q20 -1 96 -5t109 -4q9 0 27.5 1t29.5 1q130 204 311 461q-132 -108 -293 -108q-76 0 -131 36.5t-55 98.5 q0 50 42 82.5t97 32.5q21 0 21 -12q0 -4 -10.5 -9t-10.5 -10q0 -16 35 -28.5t82 -12.5q40 0 104 25.5t133 65.5t98.5 58.5t53.5 34.5q32 16 72 16q16 0 28.5 -6.5t18.5 -13t13 -17t9 -12.5q11 -9 11 -16t-9 -25q-6 -12 -75 -118.5t-177.5 -272t-158.5 -243.5q267 0 577 10 q377 595 402 629q17 24 34 33t42 9q13 0 48 -3t40 -3q17 0 36 -9t19 -27q0 -11 -21 -45q-26 -41 -123 -189.5t-172.5 -267t-140.5 -225.5q-60 -98 -162 -267.5t-168 -278.5t-69 -112q-1 -1 -1.5 -3.5t-2.5 -4.5t-6 -2q-1 0 -6 1.5t-8 1.5q-4 0 -12.5 -3.5t-14.5 -3.5 q-2 0 -7.5 1.5t-8.5 1.5t-8 -1.5t-9 -1.5h-6q-2 0 -21 -4t-35 -4q-50 0 -50 34q0 14 9 35q31 73 312 531q-185 -5 -365 -5q-48 0 -115 0.5t-100 0.5q-53 -85 -144.5 -241t-148 -249t-65.5 -96q-12 -2 -15 -2q-13 0 -20 9.5t-11 9.5q-1 0 -9 -4t-23 -4q-6 0 -14 0.5t-9 0.5 q-2 0 -5 3t-4 3t-2.5 -3t-7.5 -3q-19 0 -31 9.5t-12 26.5z" />
<glyph unicode="I" horiz-adv-x="574" d="M-22 -10q0 49 4 59q21 71 231 400.5t427.5 643t263.5 349.5q14 11 37 11q19 0 45.5 -1.5t34.5 -1.5q13 0 28 1t19 1q26 0 26 -20q0 -6 -2 -9q-478 -703 -893 -1378q-22 -36 -39 -41q-1 0 -10 -3.5t-28.5 -9t-43.5 -9.5q-3 -1 -10.5 -1t-9.5 -1q-9 -10 -30 -10q-4 0 -5 1 q-7 0 -26 7.5t-19 11.5z" />
<glyph unicode="J" horiz-adv-x="1314" d="M0 -428q0 66 41.5 137t114.5 135.5t153 122t177.5 111t166 87.5t138.5 66q364 536 739 1039q1 1 4.5 5.5t3.5 6.5q0 4 -8 4q-52 0 -156 -20q-227 -46 -451 -166.5t-392 -284.5q-152 -147 -152 -244q0 -49 42 -80.5t93 -31.5q46 0 97.5 24.5t85.5 49t38 24.5q6 0 6 -14 q0 -73 -47 -137q-30 -41 -98 -67t-125 -26q-68 0 -133 26t-110.5 81t-45.5 125q0 30 13 71q99 322 647 621q188 102 420.5 164.5t439.5 62.5q38 0 66 -24t28 -62q0 -16 -2 -24q-6 -14 -38 -60t-65 -89t-75 -97.5t-49 -63.5q-95 -127 -508 -716q37 18 103.5 44.5t84.5 26.5 q13 0 13 -18q0 -10 -7 -25t-14.5 -26t-19.5 -27l-15 -20q-25 -35 -65.5 -66t-72 -47t-90 -42t-81.5 -38l-53 -80q-54 -79 -141 -197t-154 -192q-101 -111 -197.5 -167t-224.5 -56q-62 0 -93.5 53.5t-31.5 120.5zM143 -414q0 -22 27 -22q42 0 98 35t105.5 82t105.5 113 t89.5 110t66.5 90q-58 -36 -119.5 -76.5t-157 -108.5t-155.5 -128.5t-60 -94.5z" />
<glyph unicode="K" horiz-adv-x="1468" d="M28 17q0 10 18 49q11 21 365 548h-8.5h-10.5t-10.5 0.5t-11.5 1t-11 2t-11 3.5t-9 5t-7.5 6.5t-4.5 9t-2 11.5q0 34 33.5 70.5t64.5 36.5q37 0 78 -6q189 279 291 438q-116 -109 -220 -109q-50 0 -79 34.5t-29 86.5q0 36 22.5 64t43.5 39t28 11q9 0 9 -8q0 -4 -4 -12 t-4 -12q0 -14 46 -14q40 0 117 47.5t151 95t109 47.5q39 0 59 -14q3 -3 12.5 -5.5t14.5 -6.5q7 -6 11 -13.5t7 -9.5q19 -16 19 -33q0 -13 -8 -26q-127 -192 -312 -484q248 129 567 330.5t345 237.5q6 10 17 10q6 0 18 -5t18 -5q127 -19 127 -76q0 -16 -12 -27 q-135 -121 -359.5 -261t-409.5 -234.5t-366 -177.5q142 -81 385 -269q326 -241 401 -241q26 0 44.5 14.5t20.5 14.5q17 0 17 -16q0 -6 -2 -9q-10 -29 -37.5 -83t-48.5 -73q-26 -23 -86 -23q-42 0 -127 50t-185.5 125.5t-200.5 153t-194.5 144t-146.5 87.5 q-308 -486 -321 -512q-4 -8 -17.5 -18.5t-17.5 -10.5q-13 0 -25 -3t-18 -3q-7 0 -18.5 1t-16.5 1q-14 0 -22 -6q-4 -3 -11 -5t-10 -4q-7 -7 -13 -7q-15 0 -33.5 16.5t-18.5 30.5z" />
<glyph unicode="L" horiz-adv-x="1476" d="M-150 152q0 26 8.5 50.5t33.5 51.5t64.5 46.5t106.5 32.5t154 13q101 0 264 -35q57 63 116 148.5t135.5 205.5t119.5 183q97 141 186 247.5t185.5 192.5t195 131t195.5 45q86 0 124 -43.5t38 -99.5q0 -63 -54.5 -142t-126 -140t-141 -103.5t-100.5 -42.5q-49 0 -78 34 t-29 74q0 23 8.5 35.5t17.5 12.5t11 -11q32 10 102.5 62.5t128.5 109.5t58 77q0 9 -12 9q-23 0 -53 -12t-80 -49.5t-108 -96t-140 -161t-172 -236.5q-40 -58 -113 -168.5t-121 -181t-92 -127.5q19 -5 104 -26t113.5 -28t102 -24t113.5 -23.5t99 -16.5t107 -13.5t94 -3.5 q55 0 92 8.5t51.5 17.5t15.5 9q9 0 9 -10q0 -6 -4 -13q-14 -25 -49.5 -77t-52.5 -62q-49 -29 -193 -29q-91 0 -197.5 17t-171.5 33.5t-192.5 53.5t-167.5 48q-93 -83 -199 -124.5t-245 -41.5q-60 0 -105.5 8.5t-73 24.5t-45 33t-25 42t-10 42.5t-2.5 42.5zM59 155 q0 -12 22.5 -21t53.5 -9q97 0 187 51q-77 10 -132 10q-45 0 -76 -5t-43 -11.5t-12 -14.5z" />
<glyph unicode="M" horiz-adv-x="1582" d="M-176 -127q0 36 147 257.5t341 484t402 506t312 313.5q32 22 57 22q13 0 25 -6.5t14 -6.5q4 0 7 3q13 16 52 16q38 0 74.5 -15t36.5 -34q0 -2 -2 -8q-8 -22 -103.5 -191.5t-230.5 -412t-214 -395.5q110 133 314.5 353t429.5 438.5t323 277.5q10 7 27 7q23 0 71 -14 q21 -6 63 -10t43 -4q16 -3 27.5 -13.5t11.5 -23.5q0 -9 -6 -16q-115 -153 -253 -341.5t-328 -469.5t-242 -397q105 22 313 251q3 4 7 9t7 8t6 6.5t5.5 5t4.5 1.5q3 0 6 -4t5.5 -11.5t4 -15.5t3.5 -19.5t3 -19.5t2.5 -19.5t1.5 -15.5q0 -6 4 -18t4 -20q0 -24 -25 -57 q-66 -86 -211.5 -197.5t-218.5 -111.5q-65 0 -104 40.5t-39 92.5q0 7 2 21q12 64 135.5 264t243 373.5t247.5 351.5q-64 -66 -340 -355.5t-464 -482t-250 -243.5q-17 -14 -43 -14q-39 0 -75 26.5t-36 59.5v5q4 42 193 411t317 587q-88 -97 -199.5 -233.5t-244 -312 t-261.5 -375.5t-214 -371q-15 -32 -45 -32q-14 0 -56 11q-88 24 -88 84z" />
<glyph unicode="N" horiz-adv-x="1325" d="M-36 -10q0 40 110.5 239t258 432.5t308.5 454.5t249 297q18 16 41 16q9 0 25 -4t22 -4q7 0 33.5 8t39.5 8q28 0 45 -12t17 -29q0 -4 -2 -14q-8 -30 -84 -400t-111 -552q170 231 397 569t265 449q12 35 31 54t34 22.5t37 3.5q40 0 82.5 -13.5t42.5 -44.5q0 -59 -175 -340 t-399.5 -597t-375.5 -500q-27 -33 -68 -33q-36 0 -78 14q-43 13 -43 47q0 110 193 1057q-165 -214 -401.5 -595.5t-270.5 -473.5q-2 -4 -6.5 -17.5t-6 -17.5t-6.5 -14.5t-8 -14l-9 -10.5t-12 -9.5t-15 -4.5t-19 -2q-28 0 -51.5 -4.5t-27.5 -4.5q-23 0 -42.5 13t-19.5 27z " />
<glyph unicode="O" horiz-adv-x="1306" d="M170 315q0 166 99.5 369t266.5 379q178 185 392 300.5t407 115.5q38 0 72 -17t34 -45q0 -17 -18 -41q-4 -5 -14 -21.5t-17 -23.5q33 8 70 8q69 0 118.5 -44t49.5 -89q0 -63 -27 -149.5t-75.5 -184t-118 -202t-151 -203t-179 -187t-197.5 -154.5t-211 -105t-215 -39 q-32 0 -69 11.5t-76 38t-70 63.5t-51 94.5t-20 125.5zM364 322q0 -65 29 -111.5t88 -46.5q80 0 178 48t190.5 126t172.5 161t147 169q107 136 180.5 272t73.5 188q0 21 -14 21q-41 0 -116 -52.5t-133 -115.5t-58 -91q0 -2 1.5 -6t1.5 -7q0 -7 -4.5 -13.5t-10.5 -6.5 q-13 0 -57 48.5t-44 81.5q0 77 103.5 175t230.5 149q-140 -8 -325 -119t-326 -270q-137 -154 -222.5 -324t-85.5 -276z" />
<glyph unicode="P" horiz-adv-x="1478" d="M319 36q0 8 3 17q33 86 212 365t353.5 529t213.5 292q19 20 41.5 25.5t72.5 5.5h50q13 0 13 -29q0 -12 -5 -20q-88 -123 -318 -486q8 -16 26.5 -20t58.5 -4h3.5h3h3.5q92 0 199 44.5t188 106.5t135.5 129.5t54.5 112.5q0 51 -30 89t-82 60t-115 32.5t-137 10.5 q-141 0 -346.5 -75.5t-299.5 -147.5q-33 -24 -33 -51q0 -14 12 -23t32 -9q19 0 49 11h1q5 0 5 -21q0 -20 -4 -24q-103 -73 -180 -73q-65 0 -97 40t-32 103q0 66 71 138.5t191 134t297.5 101.5t369.5 40q251 0 400 -86.5t149 -196.5q0 -111 -77.5 -225t-194 -198.5 t-258.5 -138.5t-266 -54q-100 0 -162 90q-54 -85 -112.5 -177.5t-103 -164.5t-82 -131.5t-58 -93.5t-21.5 -35q-21 -23 -45 -23q-8 0 -24 -4.5t-25 -4.5q-4 0 -12 1t-12 1h-17q-59 0 -59 37z" />
<glyph unicode="Q" horiz-adv-x="1393" d="M102 221q0 125 77.5 289.5t180.5 300t207 231.5q423 388 776 388q160 0 241 -78.5t81 -204.5q0 -96 -47 -223.5t-133 -262t-195 -259.5t-244.5 -228t-269.5 -156q9 -7 38.5 -31t41.5 -33.5t38.5 -30.5t40 -30t36.5 -25.5t37.5 -23.5t32.5 -16t32.5 -12.5t26.5 -3.5 q30 0 49 7t25.5 15.5t11.5 15.5t10 7q13 0 13 -19q0 -9 -14 -33t-24 -34q-43 -43 -105 -71t-108 -28q-167 0 -475 357q-95 -45 -178 -45q-75 0 -139 70.5t-64 166.5zM297 247q0 -52 26 -73q56 0 184.5 67.5t225.5 178.5q10 10 15 10q6 0 10 -6q0 -1 7 -12t13 -22.5t11 -30.5 t5 -38q0 -37 -27 -79t-112 -109q110 39 300 228t329 384q99 142 150 264.5t51 170.5q0 88 -96 88q-176 0 -360.5 -98.5t-330.5 -241.5q-184 -181 -292.5 -374.5t-108.5 -306.5z" />
<glyph unicode="R" horiz-adv-x="1502" d="M340 67q0 39 37 119q30 65 352 533.5t363 507.5q25 24 41 28l6 5q6 4 10 4t9.5 -1.5t8.5 -1.5t9 1.5t8 1.5q5 0 9 -2t9 -7.5t8 -7.5q42 -31 42 -56q0 -17 -13 -40q-8 -16 -55 -84t-123.5 -176.5t-110.5 -157.5q82 4 197 50t215.5 110.5t172 140t71.5 131.5q0 30 -31 54.5 t-78 38.5t-95.5 21t-90.5 7q-144 0 -325 -51t-288 -111q-59 -33 -96 -65.5t-37 -45.5q0 -7 26 -7q15 0 46 20q1 1 4 1q6 0 10.5 -5t4.5 -12q0 -6 -5 -11q-84 -84 -194 -84q-26 0 -58 29.5t-32 75.5q0 66 80 147q56 56 177.5 117.5t303.5 109.5t354 48q118 0 211 -23.5 t145.5 -58t86.5 -77.5t45.5 -76.5t11.5 -61.5q0 -83 -48 -162t-124.5 -140.5t-176 -114.5t-199 -88t-196.5 -56q36 -37 152.5 -185.5t213 -248.5t149.5 -100q7 0 18.5 6t14.5 6q11 0 11 -11q0 -6 -8 -14q-65 -73 -83 -87q-36 -28 -87 -28q-42 0 -101 45t-129 127t-126 154.5 t-128 171t-99 133.5q-10 -16 -51 -79.5t-60 -93.5t-55 -87.5t-56.5 -92.5t-43 -75.5t-35.5 -67.5q-19 -42 -68 -42q-6 0 -18 0.5t-17 0.5q-6 0 -16 -0.5t-14 -0.5q-22 0 -42 11t-20 41z" />
<glyph unicode="S" horiz-adv-x="1369" d="M141 158q0 34 15.5 61t37 40.5t38 20.5t23.5 7q18 0 18 -12q0 -5 -6.5 -14t-6.5 -13q0 -29 81.5 -55.5t167.5 -26.5q109 0 226 29t203.5 71t143 88t56.5 80q0 43 -100 80t-300 84q-181 42 -269.5 110t-88.5 173q0 90 70 179t182.5 158t246 123t268 82.5t241.5 28.5 q90 0 159 -16t100.5 -37t31.5 -43q0 -53 -13 -80q-5 -10 -10.5 -16t-14 -12t-12.5 -9q-26 -22 -100 -32.5t-141.5 -13.5t-73.5 -7t-9 -4q-6 0 -12 8t-6 22q0 22 39 70q-122 -7 -260.5 -56t-240.5 -110.5t-170 -121t-68 -89.5q0 -19 15.5 -35.5t73.5 -42t159 -51.5 q58 -15 97.5 -26t96.5 -30.5t96.5 -38t83 -46.5t69.5 -57.5t43.5 -69.5t17.5 -84q0 -60 -38.5 -123t-116 -122t-182 -105.5t-247.5 -74.5t-301 -28q-84 0 -147.5 17t-98 45.5t-51 60t-16.5 64.5z" />
<glyph unicode="T" horiz-adv-x="1161" d="M330 57q0 57 62.5 141.5t103.5 118.5q17 14 26 14q11 0 11 -13q0 -3 -2.5 -10t-2.5 -11q0 -6 5.5 -11t12.5 -5q9 0 14 8q149 198 321 463q24 36 69.5 107t72.5 112.5t67 97.5t76 100q-270 -68 -462 -68q-114 0 -192 23q-56 16 -77 40.5t-21 66.5q0 9 2 33q4 50 60.5 82 t107.5 32q23 0 23 -14q0 -8 -16.5 -26.5t-16.5 -25.5q0 -32 201 -32q261 0 561 61q172 140 297 140q83 0 110 -47q18 -28 18 -51q0 -33 -32.5 -61t-87.5 -48t-112.5 -33.5t-123.5 -23.5q-57 -73 -161.5 -227t-116.5 -171q-64 -91 -148.5 -229t-146.5 -238.5t-131.5 -198.5 t-133.5 -150t-122 -52q-47 0 -81 25t-34 81z" />
<glyph unicode="U" horiz-adv-x="1516" d="M192 152q0 173 221 514q184 286 354 485q-144 -127 -205 -127q-48 0 -75 33.5t-27 81.5q0 37 40 74.5t58 37.5q19 0 19 -4q0 -2 -15 -20.5t-15 -24.5q0 -8 13 -8q39 0 170 79t224 154q25 21 59 21q31 0 61 -16q2 5 17 -2t30 -22t15 -30q0 -11 -8 -22 q-133 -172 -313 -413.5t-253 -352.5q-63 -97 -118.5 -205t-55.5 -160q0 -35 29 -35q30 0 167.5 112t307.5 278q294 286 746 802q27 31 51 29h9q4 0 22.5 3.5t60.5 3.5q100 0 100 -37q0 -16 -22 -46q-37 -50 -130 -182t-231.5 -335t-239 -373t-100.5 -216q0 -1 1 -1 q6 0 34 14.5t75 45t89 66.5q153 129 207 191q7 8 13 8q13 0 20 -29t7 -67q0 -46 -9 -70q-30 -77 -139.5 -172.5t-240 -162t-214.5 -66.5q-40 0 -67.5 31t-27.5 81q0 89 102 272t247 382q-68 -79 -114.5 -131.5t-126.5 -139.5t-140.5 -146t-139.5 -128.5t-142.5 -111.5 t-130.5 -70.5t-120 -28.5q-75 0 -112 48.5t-37 107.5z" />
<glyph unicode="V" horiz-adv-x="1368" d="M211 166q0 72 47.5 182.5t114.5 219t154.5 229t153.5 202.5t124 150q-48 -40 -74 -60.5t-74 -54t-89 -49.5t-76 -16q-50 0 -73.5 35.5t-23.5 80.5q0 38 33.5 79.5t63.5 41.5q11 0 11 -8t-7.5 -18.5t-7.5 -14.5q0 -11 18 -11q16 0 41 11q43 19 177.5 109t197.5 149 q25 22 69 22q49 0 96 -22.5t47 -45.5q0 -5 -1 -7q-3 -7 -5 -22.5t-8 -24.5q-21 -34 -215 -304.5t-339.5 -499.5t-145.5 -300q0 -45 35 -45q48 0 186 87.5t293 227.5q81 73 195 191t235 257t205 269t84 197q0 12 -13 12q-7 0 -19 -3.5t-14 -3.5q-11 0 -11 17q0 11 8 15 q96 55 184 55q39 0 59.5 -29.5t20.5 -76.5q0 -52 -69.5 -175t-185.5 -278.5t-294 -340t-369 -333.5q-168 -132 -309.5 -204t-267.5 -72q-81 0 -121.5 55.5t-40.5 124.5z" />
<glyph unicode="W" horiz-adv-x="1835" d="M145 117q0 72 30.5 162.5t76.5 176t113 184t126 175t131 160.5t113 129t85 92q-74 -64 -146 -106.5t-116 -42.5q-48 0 -71 47q-21 34 -21 73q0 22 40 58t50 36q4 0 10 -5t6 -9l-7 -7q-7 -8 -7 -13q0 -4 6 -4q18 0 206 114.5t206 114.5q52 0 100 -28.5t48 -54.5 q0 -13 -9 -26q-31 -51 -249 -332.5t-330 -445.5q-86 -125 -132 -217.5t-46 -122.5q0 -10 6 -10q42 0 300.5 253.5t492.5 501t255 275.5q20 26 44 37.5t72 11.5q134 0 134 -51q0 -14 -17.5 -38t-58.5 -71.5t-65 -78.5q-125 -159 -278.5 -448t-153.5 -370q0 -22 14 -22 q15 0 86.5 56.5t188.5 169t231 239.5q184 205 319.5 407.5t135.5 260.5q0 46 -40 46q-11 0 -29.5 -5t-21.5 -5q-4 0 -7.5 6t-3.5 13q0 11 9 16q8 4 28.5 14.5t28.5 14t25 11.5t27.5 11t25.5 7.5t29 6t29 1.5q42 0 81.5 -26t39.5 -68q0 -87 -76 -230.5t-195 -298.5t-267 -315 t-289 -286t-265.5 -206t-191.5 -80q-142 0 -142 129q0 94 58.5 235t146.5 288q-142 -168 -273 -298t-227.5 -202.5t-167 -108.5t-112.5 -36q-32 0 -85.5 45.5t-53.5 89.5z" />
<glyph unicode="X" horiz-adv-x="1206" d="M-56 73q0 14 7 36q10 34 205 192.5t565 446.5q14 54 35 132t33.5 125.5t25.5 98t19 79t6 38.5q0 8 -9 8q-37 0 -165.5 -114.5t-128.5 -149.5q0 -23 -17 -23q-11 0 -32.5 23.5t-24.5 50.5q-2 12 -4.5 26t-4 24t-1.5 26q0 51 96 140.5t211.5 157.5t169.5 68q50 0 81.5 -36 t31.5 -89q0 -83 -86 -401q561 431 596 452q25 14 69 14q76 0 138 -24q19 -8 19 -26q0 -7 -5 -15q-10 -14 -29.5 -29.5t-78.5 -58t-142 -103.5t-255.5 -193t-385.5 -298q-96 -369 -96 -477q0 -28 9 -28q4 0 15 8q59 35 193.5 152.5t161.5 150.5q26 30 36 29q15 0 15 -36 q0 -4 -0.5 -10t-0.5 -7t9.5 -28.5t9.5 -53.5q0 -47 -18 -75q-10 -15 -37.5 -47t-76.5 -78.5t-104 -87t-123.5 -69.5t-129.5 -29q-56 0 -101 43t-45 135q0 97 52 320q-572 -480 -582 -483q-4 -3 -10 -3q-2 0 -7 2t-8 2q-1 0 -3 -0.5t-3 -0.5q-4 0 -11.5 5.5t-23 19.5 t-22.5 20q-3 3 -10 8t-9.5 7t-6.5 6t-5.5 6.5t-3.5 6t-2.5 7t-0.5 7.5z" />
<glyph unicode="Y" horiz-adv-x="1362" d="M171 158q0 77 64 216.5t164.5 298.5t178.5 273t152 213q-134 -121 -219 -121q-22 0 -37 6t-21 11.5t-18 19.5q-31 35 -31 78q0 16 10.5 33t20 26.5t27.5 24.5t20 16q6 5 19 5q16 0 16 -7q0 -2 -10.5 -11t-10.5 -15q0 -4 9 -4q13 0 30 5.5t44.5 20t50 27t67.5 39t76 43.5 q16 9 61.5 42.5t59.5 41.5q29 17 58 19q9 0 18 -3q16 -8 29.5 -11t17.5 -5q17 -9 26 -15.5t20 -21.5t11 -32q0 -28 -26 -64q-31 -42 -130 -187.5t-223.5 -334t-219 -353.5t-94.5 -208q0 -15 11 -15q5 0 55.5 39t141.5 117.5t180 164.5q175 168 362 367t286 312t116 137 q19 26 37.5 35t56.5 9q8 0 27 -0.5t29 -0.5q7 0 20 1t18 1q17 0 38.5 -15t21.5 -26q-5 -22 -236 -401.5t-487 -805t-307 -532.5q37 39 120 110q6 4 9 4q8 0 14 -6.5t6 -14.5q0 -5 -2 -7q-16 -18 -69.5 -87.5t-86.5 -107.5q-19 -21 -39.5 -54.5t-35 -47.5t-35.5 -14 q-61 0 -102.5 52.5t-41.5 88.5q0 70 297.5 546t524.5 799q-83 -98 -170.5 -196.5t-214 -228t-235 -226t-216.5 -164t-176 -67.5q-33 0 -65.5 19t-45.5 46q-16 31 -16 103z" />
<glyph unicode="Z" horiz-adv-x="1259" d="M80 87q0 9 4 20t4 12q0 48 233.5 287t498 480.5t390.5 340.5q-87 -25 -219 -44.5t-249 -19.5q-292 0 -292 127q0 42 23.5 76t56 52t59 27.5t39.5 9.5q27 0 27 -13q0 -6 -16.5 -18t-16.5 -19q0 -11 22 -20.5t80.5 -16t147.5 -6.5q120 0 295.5 11.5t214.5 25.5 q34 12 60 31.5t38.5 34t36 25.5t57.5 11q41 0 83 -19.5t42 -56.5q0 -30 -29 -65t-61 -57.5t-70.5 -45.5t-41.5 -26q-9 -7 -53.5 -44.5t-143.5 -126t-209 -190.5q-138 -129 -393.5 -371.5t-345.5 -332.5q110 25 294 50t339 25q160 0 244.5 -33.5t84.5 -115.5 q0 -39 -17.5 -80.5t-29.5 -41.5q-4 0 -8 12.5t-8 15.5q-47 31 -178 31q-112 0 -399.5 -23.5t-383.5 -34.5q-45 -5 -67 -5q-63 0 -103 43.5t-40 77.5z" />
<glyph unicode="[" d="M0 -143q0 48 36 118q56 110 287.5 582.5t314.5 632.5q35 68 60.5 118.5t48 100t33 73t37 85.5t38.5 90q8 18 39 32.5t57 18.5q62 0 149 -8t141 -8q9 0 26 2t24 2q35 0 35 -66q0 -31 -2.5 -51.5t-15.5 -40t-37 -22.5q-79 -10 -149 -10q-37 0 -86 2.5t-58 2.5 q-409 -910 -772 -1587q-21 -32 -21 -43q1 -5 10 -5q2 0 6 0.5t5 0.5q63 -3 83 -3q67 0 124 7q9 1 37.5 6.5t40.5 5.5q26 0 26 -20q0 -40 -62 -83t-132 -69t-115 -32q-44 -6 -84 -6q-39 0 -69 31t-42.5 69.5t-12.5 73.5z" />
<glyph unicode="\" horiz-adv-x="775" d="M411 1599q0 19 31 19q27 0 94.5 -50t80.5 -95q48 -173 78 -353t43 -372t17 -339t4 -358q0 -142 -68 -219q-30 -34 -59.5 -58t-43.5 -24q-28 0 -28 37q0 4 10 194t10 285q0 556 -108 1139q-11 55 -36 118t-25 76z" />
<glyph unicode="]" d="M-167 -265q0 39 34 92.5t58 55.5q44 0 129 -13t158 -13q524 1105 747 1634q14 35 14 42q0 19 -87 19h-38.5h-32.5t-24 -0.5t-26 -2t-25.5 -3.5t-34.5 -6q-16 -4 -24 -4q-43 0 -43 88q0 111 55 111q83 0 167.5 -5.5t168.5 -5.5q28 0 48 -11.5t31 -34.5t16.5 -43t10.5 -52 q7 -51 7 -68q0 -44 -17 -81q-54 -116 -269 -594.5t-292 -638.5q-29 -57 -106.5 -222t-124.5 -253q-23 -43 -179 -43q-93 0 -227 12q-94 5 -94 40z" />
<glyph unicode="^" horiz-adv-x="1024" d="M448 907q0 21 21.5 50t63.5 66t83 69.5t103 81t100 79.5q11 9 99 79.5t124 103.5q11 14 31 14q16 0 77 -61q15 -16 15 -36v-5q-2 -13 -10.5 -74t-14 -104.5t-10.5 -105.5t-5 -108q0 -16 2.5 -44t2.5 -39q0 -28 -46.5 -48t-94.5 -20q-57 0 -57 31q0 5 1 8q8 26 32 166 t32 219q-48 -56 -211.5 -201t-218.5 -219q-3 -3 -9 -3q-26 0 -68 34.5t-42 66.5z" />
<glyph unicode="_" horiz-adv-x="788" d="M-173 -233q0 9 15 22t18 21q7 20 53.5 45.5t71.5 27.5q45 3 128.5 7t115.5 6q308 10 373 10t75 -4q14 -4 29.5 -23.5t24.5 -25.5q16 -11 16 -25q0 -25 -25 -38.5t-55 -16.5q-103 -10 -242 -19q-46 -3 -157 -12.5t-192 -14.5t-156 -6h-15q-27 0 -52.5 12t-25.5 34z" />
<glyph unicode="`" horiz-adv-x="819" d="M538 1221q0 20 47.5 46.5t92.5 26.5q10 0 17.5 -2.5t13.5 -10t10 -15.5t9.5 -25t9.5 -32t11.5 -43t14.5 -52q1 -3 18 -53.5t26 -86t9 -57.5q0 -16 -7.5 -22t-25.5 -6q-24 0 -43.5 8t-32 24.5t-19.5 28.5t-15.5 33t-10.5 25q-27 54 -59.5 102t-49 71.5t-16.5 39.5z" />
<glyph unicode="a" horiz-adv-x="834" d="M6 156q0 86 40.5 177.5t106.5 167t144.5 137t159.5 96t147 34.5q54 0 88 -18t43 -45q24 36 40.5 45.5t49.5 9.5q34 0 55 -13t21 -39q0 -28 -14 -42q-12 -12 -54.5 -85.5t-94 -188t-66.5 -195.5q-3 -10 -3 -28q0 -55 32 -55q28 0 69 28.5t73 61t62.5 66.5t32.5 35 q10 9 22 9q10 0 16 -7t8.5 -25t2.5 -25.5v-31.5q0 -31 -6 -43q-29 -57 -127.5 -137t-186.5 -80q-73 0 -111 49t-38 118q0 50 20 95q-83 -108 -190.5 -183t-181.5 -75q-76 0 -118 53t-42 134zM164 156q0 -25 20 -25q28 0 156 110.5t186 182.5q26 33 88 118t78 107 q-30 0 -63.5 -7.5t-79.5 -26t-101 -59t-110 -97.5q-65 -68 -119.5 -163t-54.5 -140z" />
<glyph unicode="b" horiz-adv-x="763" d="M40 133q0 92 69 260t167.5 341.5t201 338.5t174.5 270t84 117q20 20 62.5 31t68.5 10q36 0 36 -28q0 -18 -18 -46q-211 -317 -411 -663q46 24 103.5 34.5t85.5 10.5q19 0 36 -1.5t43.5 -11t45 -26t32.5 -49.5t14 -78q0 -64 -40.5 -153.5t-110 -179.5t-152 -167.5 t-177.5 -126.5t-177 -49q-38 0 -87.5 49t-49.5 117zM191 162q0 -45 29 -45q69 0 199 115.5t196 234.5q41 72 41 133q0 57 -37 57q-38 0 -115.5 -32.5t-89.5 -32.5q-10 0 -28 18q-195 -351 -195 -448z" />
<glyph unicode="c" horiz-adv-x="747" d="M45 211q0 110 55 220.5t141.5 194t201 135.5t226.5 52q54 0 97 -31t43 -82q0 -57 -53.5 -132.5t-108.5 -75.5q-64 0 -64 61q0 16 30 57t30 60q0 10 -11 10q-55 0 -127 -45q-54 -31 -105.5 -73t-97 -93.5t-73 -113.5t-27.5 -122q0 -49 31.5 -84.5t103.5 -35.5 q56 0 111.5 9.5t96 21t85.5 34t68.5 35t57 38t38 29t24.5 21.5q4 3 5 4q11 9 20 9q24 0 24 -35q0 -56 -44.5 -108.5t-110.5 -89t-141 -64t-137 -41t-97 -13.5q-124 0 -208 68.5t-84 179.5z" />
<glyph unicode="d" horiz-adv-x="843" d="M11 141q0 102 66 220t164.5 212.5t218.5 158t221 63.5q32 0 75 -39q23 36 60.5 102t46.5 82q124 209 225 363q73 111 99 141q20 26 56.5 40.5t74.5 14.5q19 0 30 -12t11 -31q0 -6 -9 -24q-30 -49 -100 -161.5t-109 -176t-95.5 -157.5t-102.5 -173q-73 -126 -180 -337.5 t-107 -264.5v-8q0 -41 30 -41t72.5 28t74.5 60t64.5 66.5t35.5 37.5q11 9 22 9q17 0 22 -21.5t5 -67.5q0 -31 -6 -43q-29 -56 -127.5 -136.5t-186.5 -80.5q-150 0 -150 127q0 79 60 207q-40 -52 -85.5 -100.5t-104.5 -100t-124 -83t-122 -31.5q-64 0 -94.5 45t-30.5 112z M179 160q0 -23 14 -23q23 0 77 45t115.5 109.5t105 113.5t67.5 78q79 96 137 179q-144 -32 -268 -134t-201 -239q-47 -86 -47 -129z" />
<glyph unicode="e" horiz-adv-x="650" d="M16 145q0 138 191 209q-38 17 -49 43.5t-11 73.5q0 70 54.5 135.5t133.5 108t164 68.5t150 26q33 0 67 -16t34 -45q0 -66 -53.5 -116t-121.5 -50q-22 0 -29 10.5t-7 34.5q0 10 4 26q-36 -12 -82 -39q-42 -23 -106 -72t-64 -73q0 -8 20 -8q27 0 76 16.5t74 16.5 q14 0 20 -2q13 -7 28 -30.5t15 -35.5q0 -15 -35 -45q-17 -14 -50 -25.5t-44 -17.5q-211 -118 -211 -162q0 -78 133 -78q41 0 84.5 13.5t86.5 40.5t73.5 49t73.5 57t59 47q15 10 23 10q26 0 26 -79q0 -37 -6 -54q-8 -20 -41 -47q-214 -174 -405 -174q-49 0 -94 8.5t-87.5 28 t-68 57.5t-25.5 90z" />
<glyph unicode="f" horiz-adv-x="737" d="M-267 -510q0 59 25 135t80.5 182.5t106.5 194t141 236.5l18 30q-28 -5 -40 -5q-18 0 -31 7t-18 18t-7 19t-2 15q0 4 -4 14t-4 14q0 8 8 12q8 7 20.5 24t20.5 24q3 3 13.5 12.5t17.5 15.5t16.5 12.5t15.5 8.5q4 1 24.5 7.5t49 14.5t55.5 13q128 214 265 434.5t218 346.5 t93 140q31 37 86 57t79 19q27 0 27 -22q0 -9 -6 -23q-7 -16 -110 -177.5t-252 -396t-236 -378.5q4 -1 12 -4.5t13 -4.5q216 40 219 41q8 2 14 2q18 0 56.5 -13.5t56.5 -16.5q5 -1 11 -15.5t6 -28.5q0 -26 -21 -30q-5 -1 -28 -6.5t-70.5 -17.5t-86.5 -21q53 -63 53 -125 q0 -80 -63 -196.5t-161 -230.5t-205.5 -215t-206.5 -163.5t-154 -62.5q-40 0 -77.5 25.5t-37.5 78.5zM-100 -425q0 -15 11 -15q20 0 82.5 45.5t141 122t153 163.5t125.5 182.5t51 166.5q0 50 -59 96l-111 -25q-17 -28 -52.5 -88.5t-58 -98.5t-57.5 -98t-58.5 -101t-52 -92.5 t-47 -88t-35.5 -72.5t-25 -60t-8 -37z" />
<glyph unicode="g" horiz-adv-x="857" d="M-9 -507q0 54 30.5 114t77 109.5t91.5 90t83.5 71.5t44.5 38q74 111 201 315q-108 -113 -209.5 -180t-151.5 -67q-153 0 -153 131q0 104 53 210t136 189.5t179.5 150t189.5 102.5t160 36q34 0 57 -11.5t31 -27.5q21 24 50.5 35.5t46.5 12.5t55 1q12 0 18 -6.5t11 -24.5 t6 -20t1 -5q0 -6 -5 -12.5t-11.5 -12.5t-7.5 -7q-221 -317 -452 -723q238 211 426 303q12 6 23 6q16 0 21 -20.5t5 -65.5q0 -31 -6 -43q-3 -6 -45 -33t-109 -70t-142 -95t-156.5 -123t-139.5 -140q-150 -181 -215 -292q-24 -43 -87 -43q-52 0 -79.5 28t-27.5 79zM164 150 q0 -17 9 -17q8 0 37.5 18t83.5 61.5t120 104t156.5 159t183.5 214.5q-116 -25 -218 -82.5t-168 -123t-114 -134.5t-69 -120.5t-21 -79.5z" />
<glyph unicode="h" horiz-adv-x="805" d="M-51 -3q0 6 4 17q67 156 125 280.5t183 363t290 526.5q110 192 172 272q44 57 148 57q6 0 10.5 -1t9 -4.5t6.5 -12t2 -21.5q0 -17 -6 -32l-107 -167q-107 -167 -248.5 -404.5t-230.5 -417.5q66 80 139 154.5t164 139t150 64.5q32 0 72 -16q34 -13 34 -68q0 -20 -65 -148 t-130 -261.5t-65 -167.5q0 -40 35 -40q10 0 27 5q20 6 59 35t71 59t66 62.5t35 33.5q12 9 22 9t16.5 -7.5t8.5 -24t2.5 -27t0.5 -30.5q0 -29 -7 -43q-12 -25 -44.5 -60.5t-78 -71.5t-106 -61.5t-118.5 -25.5q-165 0 -165 146q0 127 221 506q8 14 11 20 q-77 -54 -294.5 -294.5t-289.5 -340.5q-6 -9 -30 -20t-39 -11q-12 0 -27.5 8.5t-19.5 8.5q-13 0 -13 11z" />
<glyph unicode="i" horiz-adv-x="415" d="M10 131q0 44 55 149t110 194t55 93q0 11 -20.5 33t-20.5 33q0 10 41.5 54.5t101 88t98.5 43.5q24 0 49 -28t25 -52q0 -22 -238 -432q-3 -6 -16.5 -26.5t-21 -34t-17.5 -33t-15 -36t-5 -30.5q0 -34 51 -34q41 0 90.5 31.5t85 69.5t67 69.5t40.5 31.5q26 0 26 -90 q0 -30 -6 -43q-49 -100 -156 -161.5t-197 -61.5q-68 0 -125 53t-57 119zM492 985q0 61 50.5 115.5t111.5 54.5q27 0 43 -15t16 -42q0 -57 -53 -114.5t-109 -57.5q-59 0 -59 59z" />
<glyph unicode="j" horiz-adv-x="453" d="M-500 -500q0 28 19.5 61.5t65.5 78.5t79 74t104.5 87t97.5 80q44 74 112 191t108 184t90 147.5t90 137.5q-5 1 -22 -1t-28.5 -1.5t-24 12t-16.5 35.5q-6 35 114.5 117.5t163.5 82.5q75 0 75 -75q0 -8 -5 -23q-11 -31 -174.5 -296t-226.5 -361q9 6 55.5 40t97.5 71t106 75 t95.5 63t51.5 25q16 12 28.5 8t14.5 -18q5 -22 6.5 -55t-6.5 -58q-5 -8 -74.5 -47t-158 -90t-196.5 -131t-179 -158q-19 -38 -56.5 -92.5t-89 -117t-112 -105.5t-109.5 -43q-40 0 -68 26t-28 76zM539 969q0 66 66 129t132 63q58 0 58 -49q0 -66 -71.5 -129t-137.5 -63 q-47 0 -47 49z" />
<glyph unicode="k" horiz-adv-x="753" d="M-42 43q0 3 2 8.5t6 15t7 19.5q21 71 351 668t352 622q9 12 16.5 20.5t17 14.5t14 8t18 6.5t18.5 6.5q24 8 40 16.5t22 12t13 3.5q12 0 20.5 -9t8.5 -23v-7q-3 -12 -123 -227.5t-256.5 -458.5t-159.5 -286q78 31 230 153t153 160q2 42 28 60t56 18q31 0 52.5 -20.5 t21.5 -55.5q-2 -58 -53 -129.5t-122 -132t-140 -107t-115 -65.5q81 -219 186 -219q29 4 69.5 33t71 60t59.5 62.5t32 34.5q10 9 22 9q10 0 16 -7t8.5 -25t2.5 -25.5v-31.5q0 -31 -6 -43q-29 -56 -127 -136.5t-186 -80.5q-30 0 -58 7.5t-53.5 24t-46.5 32.5t-43 43.5 t-36.5 45.5t-33 50t-26.5 45.5t-23.5 44t-17.5 33.5q-18 -37 -40 -80t-40 -80t-33 -67.5t-24.5 -50.5t-10.5 -21q-7 -16 -20 -16q-10 0 -33.5 7t-30.5 7q-9 1 -15.5 4t-10.5 5t-9 8t-6.5 8.5t-6.5 11.5t-7 12q-1 1 -1 4z" />
<glyph unicode="l" horiz-adv-x="528" d="M100 176q0 195 104.5 458.5t235.5 448.5q295 418 451 418q48 0 84.5 -28.5t36.5 -75.5q0 -65 -62 -184.5t-149 -244t-197 -264.5t-190 -234t-144 -165q-1 -12 -8.5 -44.5t-7.5 -51.5q0 -47 30.5 -73.5t77.5 -26.5q43 0 94.5 32t89.5 71t73.5 71t48.5 32q26 0 26 -73v-20 q0 -21 -8 -40t-14.5 -27t-24.5 -28q-62 -70 -161.5 -118t-190.5 -48q-97 0 -146 57.5t-49 157.5zM311 532q118 140 326.5 436.5t208.5 366.5q0 15 -10 15q-35 0 -184 -200t-193 -280q-89 -158 -148 -338z" />
<glyph unicode="m" horiz-adv-x="1246" d="M-50 37q0 9 8 35q195 429 377 686q20 28 64.5 42.5t86.5 14.5q25 0 25 -39q0 -11 -8 -33q-8 -15 -40 -57t-76 -96t-50 -62q52 54 117.5 112.5t153 113.5t140.5 55q46 0 72.5 -28.5t26.5 -73.5q0 -20 -4.5 -41.5t-16.5 -45t-20.5 -40t-28.5 -43t-27.5 -36.5t-31 -38 t-25.5 -31q28 28 78 83t84.5 92t86.5 83.5t97 75t103 48.5t116 20q38 0 64 -24t26 -62q0 -29 -81 -155.5t-161.5 -254t-80.5 -160.5q0 -13 1 -20t5 -19t16 -18t31 -6q29 4 72.5 33t77 59.5t67.5 63.5t35 34q10 9 22 9q10 0 16 -7t8.5 -25t2.5 -25.5v-31.5q0 -31 -6 -43 q-29 -56 -128 -137t-190 -81q-11 0 -16 1q-103 10 -142.5 56.5t-39.5 115.5q0 59 43.5 150t95.5 165t95.5 133.5t43.5 63.5q0 6 -8 6q-31 0 -138 -100t-191 -190.5t-125 -139.5q-35 -42 -166 -213q-15 -20 -54 -20q-26 0 -61 12.5t-35 32.5q0 10 159 280.5t159 290.5 q0 12 -7 20.5t-18 8.5q-34 0 -126 -88t-165 -172.5t-106 -128.5q-71 -94 -121 -180q-9 -14 -35 -44t-35 -30q-8 0 -24.5 1t-24.5 1h-18q-7 2 -13 6t-13 9.5t-11 8.5q-8 5 -8 17z" />
<glyph unicode="n" horiz-adv-x="800" d="M-66 49q0 12 7 29.5t13.5 29t21.5 35.5t18 29q86 150 262 444l26 45.5t32 54t30 42.5q45 57 152 57q24 0 24 -39q0 -21 -22.5 -63t-64.5 -105l-42 -63q47 52 84.5 88.5t93.5 83t114 71.5t112 25q39 0 66.5 -25t27.5 -65q0 -21 -21 -63.5t-42.5 -76t-56.5 -84.5t-40 -59 q-1 -1 -13.5 -20.5t-18.5 -28.5t-20 -31.5t-22.5 -37.5t-21 -37t-20 -38t-15 -34.5t-11 -33t-3.5 -25.5q0 -22 17.5 -33t42.5 -11q32 0 80.5 32t87.5 70.5t74 70.5t44 32q26 0 26 -90q0 -60 -47 -88q-39 -35 -64.5 -56.5t-69.5 -53t-87.5 -47t-85.5 -15.5q-64 2 -116 47 t-52 115q0 59 34 141t69.5 140.5t89.5 138.5q50 75 53 94l-2 2q-33 -3 -163.5 -130t-209.5 -214q-91 -101 -209 -258q-33 -43 -63 -43q-12 0 -47.5 13.5t-44.5 21.5q-7 4 -7 16z" />
<glyph unicode="o" d="M21 139q0 104 42.5 209t109.5 185.5t145.5 144t154 97.5t131.5 34q28 0 50.5 -8.5t32.5 -18t10 -16.5v-6q14 2 34 2q40 0 71.5 -27t31.5 -78q0 -60 -39 -148.5t-107 -180t-149.5 -172t-176 -132t-177.5 -51.5q-71 0 -117.5 48.5t-46.5 117.5zM172 177q0 -56 41 -56 t122 54t163 157q77 97 116.5 170.5t39.5 106.5q0 20 -14 20h-7q-35 0 -35 51q-73 -24 -153 -84t-146 -145q-61 -79 -93.5 -152.5t-33.5 -121.5z" />
<glyph unicode="p" horiz-adv-x="801" d="M-399 -532q0 55 24 96q135 225 520.5 846.5t417.5 642.5q18 12 36 12q4 0 10 -0.5t9 -0.5q2 0 8.5 1t9.5 1q15 0 25 -30q8 -22 8 -26q0 -14 -20 -39l-285 -434q10 10 28 26.5t69.5 58.5t99.5 74.5t108 59t105 26.5q52 0 81.5 -31.5t29.5 -82.5q0 -43 -26 -112t-70.5 -147 t-108 -157t-133 -143t-151.5 -104t-159 -40q-48 0 -79 29.5t-31 85.5q-85 -130 -190 -297t-169 -269.5t-71 -111.5q-15 -19 -24 -19q-6 0 -21.5 9t-32.5 30t-18 46zM180 156q26 -32 70 -32q58 0 139 55t150 130.5t118 158.5t49 136q0 21 -20 21q-54 0 -228.5 -166 t-277.5 -303z" />
<glyph unicode="q" horiz-adv-x="837" d="M-8 123q0 87 46.5 181t119.5 174t153 144.5t158 106.5q130 70 217 70q101 0 123 -62q13 28 21 35q11 15 54.5 31t63.5 16q15 0 25 -14.5t10 -28.5q0 -18 -4 -26q-31 -61 -69 -129t-86 -149.5t-74 -127.5q-37 -65 -117.5 -206.5t-134.5 -239t-111 -209.5q4 4 28.5 29 t43 43.5t41 35.5t33.5 17q7 0 13 -1t10.5 -1.5t10 -3.5t9 -4t8.5 -5.5t7 -6t7.5 -7.5t7 -7.5t7.5 -8.5t8 -9q10 -10 10 -18q0 -17 -13 -34.5t-45 -45t-36 -31.5q-244 -239 -291 -239q-37 0 -66.5 29.5t-29.5 66.5q0 116 331 672q5 9 8.5 15t6.5 11q-70 -79 -175 -151 t-186 -72q-68 0 -105.5 45.5t-37.5 114.5zM172 162q0 -21 19 -21q47 0 173 98t187 162q98 100 205 256q-17 13 -49 13q-67 0 -169 -63t-165 -126q-57 -57 -129 -162t-72 -157z" />
<glyph unicode="r" horiz-adv-x="715" d="M-68 49q0 16 8 34.5t29.5 52.5t22.5 36q86 150 262 444l26 45.5t32 54t30 42.5q45 57 152 57q24 0 24 -39q0 -21 -22.5 -63t-64.5 -105l-42 -63q44 50 83 88.5t94 83.5t113 70.5t112 25.5q41 0 67.5 -24.5t26.5 -65.5q0 -37 -55.5 -128.5t-102.5 -154.5q-25 -32 -57 -32 q-31 0 -48.5 23t-17.5 54q0 69 74 156l-2 2q-33 -3 -163.5 -130t-209.5 -214q-104 -114 -211 -258q-31 -43 -61 -43q-13 0 -48.5 13.5t-43.5 21.5q-7 4 -7 16z" />
<glyph unicode="s" horiz-adv-x="753" d="M41 82q0 54 25.5 96.5t56.5 42.5q49 0 49 -21q0 -3 -0.5 -8.5t-0.5 -7.5q0 -25 19 -43t35 -18q120 0 212.5 36t92.5 72q0 17 -33.5 29.5t-113 31t-121.5 30.5q-30 9 -51 18t-43.5 25t-34.5 40t-12 56q0 68 48.5 132.5t121.5 110.5t157 81t157.5 52t121.5 17 q42 0 71.5 -7.5t43.5 -17t21.5 -24t8 -21t0.5 -16.5v-7q0 -53 -24 -85q-21 -28 -69.5 -52t-90.5 -24q-15 0 -22.5 4t-12.5 10.5t-10 8.5q-10 4 -10 19q0 9 10 21.5t14 26.5q-66 -3 -138 -30.5t-123.5 -61.5t-85.5 -65t-34 -44q0 -16 45.5 -25t134 -28.5t160.5 -52.5 q43 -20 68 -58t25 -69q0 -64 -51 -121t-126 -93.5t-156 -57.5t-145 -21q-99 0 -144.5 36.5t-45.5 82.5z" />
<glyph unicode="t" horiz-adv-x="440" d="M50 160q1 55 44.5 160.5t109.5 224.5t119 207t97 157l-38.5 -4.5t-82 -9t-52.5 -4.5h-9q-12 0 -25 2.5t-26.5 7.5t-22.5 15t-9 24q0 6 6.5 14t14.5 17.5t11 17.5q7 22 52.5 49t72.5 29q65 5 105 6.5t69.5 2t44.5 1.5q4 6 30.5 44.5t37 53t31 41t38.5 46.5q10 13 15 16.5 t20 3.5q8 0 23.5 3t23.5 3q14 0 24 -5t17 -5q9 0 16 -9t7 -18q0 -7 -21 -42t-49.5 -79.5t-30.5 -48.5q78 6 99 6q44 0 55 -4q13 -5 28.5 -25.5t24.5 -27.5q17 -14 17 -29q0 -27 -25.5 -41.5t-54.5 -17.5q-232 -23 -256 -24q-81 -124 -226.5 -386.5t-154.5 -328.5 q-4 -30 -4 -39q0 -28 12 -38.5t37 -10.5q33 0 83 31.5t91.5 68.5t77 68.5t43.5 31.5q26 0 26 -90q0 -49 -45 -88q-4 -4 -14 -12q-38 -33 -62.5 -53t-68 -50t-84.5 -45t-79 -15q-15 0 -28 3q-80 15 -117.5 58.5t-37.5 136.5z" />
<glyph unicode="u" horiz-adv-x="810" d="M0 90q0 34 12 79.5t25.5 81.5t40 89t39.5 77t41.5 72.5t28.5 49.5q93 163 117 195q37 47 71 48q24 0 46 -24t22 -41q0 -13 -66.5 -133t-132.5 -249.5t-66 -167.5q0 -15 11 -15q48 0 239 208t224 271q27 54 55.5 94t42.5 49t47 19t64 11q11 0 16 -1q7 -1 15 -17t8 -25 l-1 -3q-49 -95 -99 -181t-58 -102q-118 -244 -118 -318q0 -42 32 -42q29 4 69.5 33t70.5 60t59.5 63t31.5 34q12 9 22 9t16 -7t8.5 -25t2.5 -25.5v-31.5q0 -31 -6 -43q-29 -56 -127 -136.5t-186 -80.5q-54 0 -100 32.5t-46 96.5q0 98 43 176q-248 -311 -389 -311 q-56 0 -90.5 40t-34.5 91z" />
<glyph unicode="v" horiz-adv-x="745" d="M46 82q0 74 62 215t122 238q-53 -39 -65 -39q-11 0 -28.5 26t-17.5 46q0 9 5 16q197 219 278 219q34 0 57 -20t23 -46q0 -30 -68 -163t-136 -268.5t-68 -170.5q0 -6 6 -6q26 0 140.5 103.5t178.5 183.5q78 98 131.5 188t53.5 127q0 19 -11.5 37.5t-11.5 34.5 q0 27 29.5 53.5t75.5 26.5q94 0 94 -113q0 -69 -77 -201.5t-191 -261.5q-127 -143 -262 -242.5t-211 -99.5q-41 0 -75 30t-34 87z" />
<glyph unicode="w" horiz-adv-x="1134" d="M38 61q0 69 69 227.5t132 254.5q-23 -14 -36 -14q-22 0 -42.5 19.5t-20.5 31.5q0 10 9 22q21 30 121 112.5t141 82.5q33 0 66.5 -14t33.5 -42q0 -21 -139 -282t-139 -283q0 -3 2 -3q21 0 209.5 214t296.5 352q15 25 45 25q2 0 5 -0.5t4 -0.5t9.5 2.5t21 5.5t24.5 3 q13 0 25.5 -10t12.5 -20q0 -6 -4 -13q-67 -121 -147 -299t-80 -250q0 -18 13 -18q38 0 165 145q114 130 190 256t76 178q0 10 -6 22t-6 26q0 41 28.5 64.5t71.5 23.5q84 0 84 -107q0 -77 -76 -212.5t-179.5 -262t-219.5 -220t-188 -93.5q-53 0 -79 34t-26 82q0 15 3 43 t17 84t37 103q-107 -140 -230 -251.5t-206 -111.5q-40 0 -64 24t-24 70z" />
<glyph unicode="x" horiz-adv-x="760" d="M-79 27q0 12 4 24q11 40 128.5 167t268.5 257q-4 86 -4 172q0 7 -5 7q-6 0 -37.5 -29t-46.5 -29q-21 0 -35.5 32t-14.5 53q0 5 2 13q15 40 83 102t132 62q18 0 47.5 -18.5t31.5 -40.5q7 -105 7 -174q157 171 309 276q13 8 27 8q30 0 59 -20q39 -31 39 -52q0 -16 -15 -28 q-11 -10 -89.5 -81.5t-179.5 -164.5t-161 -147q-8 -96 -8 -166q0 -135 27 -135q29 4 69.5 33t70.5 60t59.5 63t31.5 34q11 9 21 9q18 0 22.5 -21t4.5 -71q0 -29 -5 -40q-27 -56 -126.5 -136.5t-188.5 -80.5q-145 0 -145 200q0 41 6 99q-167 -176 -269 -305q-8 -11 -27 -11 q-31 0 -62 25t-31 54z" />
<glyph unicode="y" horiz-adv-x="799" d="M-7 78q0 10 1 14q4 53 18.5 96.5t32 74t62 104.5t82.5 143q36 55 74 128t58 104.5t37 31.5q19 0 47.5 -22.5t28.5 -53.5t-131 -269t-131 -271q0 -8 8 -8q27 0 119.5 76.5t205 196.5t181.5 222q5 7 14 21t14.5 21.5t14 20t14 19.5t13 16.5t13.5 14.5t12.5 10.5t13 7.5 t12.5 2q13 0 40.5 -6t35.5 -16q3 -4 9 -10.5t8 -11t2 -9.5q0 -9 -13 -35q-3 -5 -88 -148.5t-188 -325t-156 -290.5q152 128 428 379q11 9 22 9q31 0 31 -95q0 -28 -10 -37q-160 -123 -289 -240.5t-274 -273.5q-5 -5 -30.5 -50.5t-54.5 -92t-71.5 -88.5t-79.5 -47 q-20 -2 -28 -2q-92 0 -92 93q0 67 43.5 147t93 135.5t101 107t54.5 55.5q6 9 150 281q-96 -105 -178 -170.5t-158 -73.5h-7q-39 0 -79 27q-36 24 -36 88z" />
<glyph unicode="z" horiz-adv-x="735" d="M-4 72q0 24 4 32q39 75 92 143.5t113 125t111 99t113.5 91.5t93.5 76q-33 -2 -107 -7t-114 -7.5t-87 -7t-71 -9.5h-3q-20 0 -20 33q0 19 31 64t78 59q37 11 81.5 14.5t89 2.5t131 5t187.5 21q2 0 28.5 10t43.5 10q23 0 40.5 -22t17.5 -58t-19 -52.5t-64 -28.5 q-438 -342 -544 -525q33 10 168 35t249.5 51.5t135.5 48.5q10 10 22 10q15 0 24.5 -5.5t13 -20.5t4.5 -28.5t1 -41.5q0 -22 -20.5 -54.5t-40.5 -41.5q-33 -15 -296 -60.5t-353 -56.5q-25 -4 -47 -4q-9 0 -17 1t-14 2t-11.5 3t-8.5 3t-7 4t-5.5 4t-5.5 4l-3 4q-15 14 -15 74z " />
<glyph unicode="{" horiz-adv-x="900" d="M210 -143q0 69 40 161.5t97 181t114.5 173.5t97.5 162t40 124q0 34 -24.5 52.5t-58.5 26t-68 16.5t-56 33.5t-19 68.5q2 33 21.5 54.5t34.5 21.5q6 0 33.5 -10t46.5 -10q64 0 139 33t138 96q60 60 89 127.5t33 125.5t5 114t17.5 110.5t58.5 96.5q44 44 108.5 68.5 t125.5 24.5q292 0 292 -104q0 -27 -20.5 -64.5t-51 -54.5t-65.5 15q-27 28 -73 40t-90 6t-75.5 -41t-30.5 -94q2 -92 -16.5 -175t-62 -163t-126 -144t-197.5 -103q64 -32 82 -87t-3.5 -121.5t-62.5 -141t-94.5 -153t-100.5 -149.5t-79.5 -138.5t-32.5 -111.5q0 -42 22 -60.5 t58 -15.5t72.5 12.5t76 21t56.5 11.5q26 0 26 -20q0 -40 -62 -83t-132 -69t-115 -32q-44 -6 -84 -6q-39 0 -69 31t-42.5 69.5t-12.5 73.5z" />
<glyph unicode="|" horiz-adv-x="768" d="M41 -201q0 10 1 13q20 89 485.5 953.5t516.5 909.5q9 10 25 10q10 0 29.5 -1.5t25.5 -1.5q14 0 27 0.5t16 0.5q21 0 21 -16q0 -4 -1 -6q-129 -229 -480 -885.5t-507 -968.5q-10 -21 -29 -32l-7 -3q-6 -3 -19.5 -7.5t-28.5 -8.5q-2 -1 -8 -1t-7 -1q-4 -7 -18 -7q-3 0 -4 1 q-5 0 -20 5.5t-15 8.5q-3 8 -3 37z" />
<glyph unicode="}" horiz-adv-x="900" d="M-181 -184q0 34 30 79t65 45q22 0 42 -20q46 -48 118 -48q54 0 96 34t55 103q124 655 482 775q-49 37 -73.5 67.5t-24.5 67.5q0 53 34.5 117.5t84.5 124t99.5 118t84 118.5t34.5 107q0 39 -18.5 60t-37.5 21q-38 0 -138 -29t-119 -29q-26 0 -26 20q0 70 21 107.5t78 44.5 q5 1 43.5 7.5l77 13t88.5 12t85 5.5q39 0 69 -31t42.5 -69.5t12.5 -73.5q0 -69 -32.5 -140t-79 -130.5t-93 -116t-80 -116.5t-34.5 -113q-1 -42 36 -68.5t81.5 -37t82 -33t37.5 -56.5t-20.5 -66.5t-34.5 -32.5q-6 0 -39.5 2.5t-52.5 2.5q-64 0 -139 -33t-138 -96 q-60 -60 -96.5 -143t-50.5 -163t-25.5 -158t-35 -148t-65.5 -112q-44 -44 -108.5 -68.5t-125.5 -24.5q-292 0 -292 104z" />
<glyph unicode="~" horiz-adv-x="793" d="M150 515q0 51 33.5 103t79.5 88t93.5 58.5t76.5 22.5q47 0 85 -21t58.5 -45.5t46.5 -45.5t51 -21q43 0 75.5 11.5t51 28t32 33.5t27.5 28.5t29 11.5q26 0 39.5 -27t13.5 -60q0 -26 -8 -42q-36 -77 -110.5 -122.5t-159.5 -45.5q-42 0 -77.5 14t-58.5 34t-43 40.5t-40 34.5 t-41 14q-30 0 -57 -14.5t-46.5 -34.5t-38 -40.5t-40.5 -35t-45 -14.5q-10 0 -18.5 13.5t-8.5 33.5z" />
<glyph unicode="&#xa1;" horiz-adv-x="670" d="M-71 -79q0 3 4 13q185 272 315.5 474t374.5 597q21 35 41 41q1 0 2 1t3.5 2.5t6.5 3t14 3t23 2.5h10t10 2q14 10 37 10q37 0 37 -38q0 -15 -8 -42q-21 -72 -178 -324t-322 -488.5t-211 -272.5q-13 -10 -57 -10q-15 0 -40 5t-37 5q-25 0 -25 16zM790 1296q0 58 53.5 115 t109.5 57q60 0 60 -59q0 -68 -53 -119.5t-112 -51.5q-28 0 -43 16t-15 42z" />
<glyph unicode="&#xa2;" horiz-adv-x="968" d="M190 418q0 123 74 242.5t198 207.5t268 124q133 270 156 313q16 30 72 48.5t81 18.5q10 0 19.5 -7t9.5 -18q0 -6 -5 -14q-24 -39 -76.5 -137.5t-91.5 -182.5h2q53 0 95.5 -31t42.5 -81q0 -56 -53 -130.5t-107 -74.5q-63 0 -63 60q0 16 29.5 56.5t29.5 59.5q0 10 -11 10 q-10 0 -30 -2q-169 -346 -268 -549q28 4 56.5 11.5t52.5 16.5t48.5 20.5t43.5 22.5t39 24t33.5 23t28 22t21.5 18.5t15 14.5l9 7q11 9 20 9q23 0 23 -35q0 -55 -46.5 -109.5t-117.5 -94.5t-150.5 -68t-149.5 -37q-20 -41 -140 -289q-14 -29 -79 -29q-20 0 -38 7t-19 16 q-1 4 -5 14.5t-4 17.5q0 5 3 13q47 96 129 262q-71 24 -108 83.5t-37 146.5zM360 440q0 -69 51 -96q46 92 125.5 254t111.5 227q-122 -62 -205 -167t-83 -218z" />
<glyph unicode="&#xa3;" horiz-adv-x="1222" d="M-90 162q0 23 7.5 44.5t28.5 44.5t54 40t89.5 28t129.5 11q66 0 216 -27q52 61 77 169q-136 -17 -266 -17q-25 0 -46.5 9t-21.5 29l14 16q16 18 23 34q7 21 54 48.5t75 30.5q43 5 184 12q11 50 12 57q13 70 43 136.5t71 121.5t91.5 103.5t106 85t113 63t114.5 40 t108 13.5q39 0 67.5 -12t42.5 -32t20.5 -40.5t6.5 -42.5q0 -52 -36 -114.5t-84 -110.5t-96 -80.5t-73 -32.5q-46 0 -70 31.5t-24 70.5q0 12 3 22.5t7.5 16t8.5 8.5t7 3t17 -14q17 7 37.5 20t40.5 27.5t39.5 30.5t34 29.5t23.5 25t9 16.5q0 14 -5 19t-20 5q-12 0 -32 -3.5 t-51 -12t-65.5 -25.5t-72 -40t-73.5 -59.5t-67 -80t-55.5 -105.5t-36.5 -133q70 3 182 3q73 0 84 -4q13 -6 30.5 -30.5t27.5 -31.5q9 -5 9 -16q0 -21 -24 -33.5t-52 -15.5q-139 -18 -267 -22q-13 -114 -76 -238q42 -17 108 -49t104 -48.5t94.5 -31t111.5 -14.5q84 0 119 24 q14 11 20 11q9 0 9 -10q0 -20 -34.5 -68.5t-56.5 -69.5q-54 -27 -129 -27q-53 0 -133.5 30.5t-176.5 76.5t-137 61q-166 -141 -373 -141q-60 0 -103 11t-65.5 26.5t-34.5 40.5t-14.5 43t-2.5 44zM61 162q0 -12 22.5 -21t53.5 -9q97 0 187 51q-77 10 -132 10q-45 0 -76 -5 t-43 -11.5t-12 -14.5z" />
<glyph unicode="&#xa4;" horiz-adv-x="1024" d="M193 224q7 25 11.5 39t8 24t10.5 18l10.5 12t17 15.5t21.5 19.5q10 10 29.5 27.5t28.5 26.5q-16 50 -16 107q0 64 18.5 124.5t51.5 111t79 91.5q-14 20 -28 44q-19 30 -42.5 57t-39 43.5t-19.5 24.5q-8 20 23 23q48 5 116 -24q37 -16 50 -32q9 -12 24.5 -32.5t22.5 -29.5 q104 53 220 53q51 0 112 -47q28 21 93.5 68.5t87.5 63.5q29 21 42 20q25 -4 5 -85q0 -2 -3 -14t-5.5 -18l-7.5 -18t-14 -23t-21 -22q-43 -40 -99 -91q2 -16 2 -24q0 -215 -125 -366q6 -17 17 -42q42 -106 14 -181q-30 -83 -53 -91q-19 -9 -30 18q-4 8 -13 35l-25 75t-28 83 q-100 -62 -198 -62q-71 0 -130 42q-64 -64 -142 -145q-4 -4 -14 -18.5t-18.5 -20t-20.5 -4.5q-23 3 -29 49t6 75zM446 525q0 -67 31 -97.5t77 -30.5q55 0 108.5 32t90.5 80t60 104t23 105q0 50 -24 79.5t-47 29.5q-63 0 -124 -32t-102.5 -78.5t-67 -98.5t-25.5 -93z" />
<glyph unicode="&#xa5;" horiz-adv-x="1038" d="M280 457q0 41 10.5 85.5t34 93.5t44.5 88.5t58 93.5t58 84t60 82q9 12 13 18q-104 -98 -174 -98q-17 0 -29 4.5t-16.5 9t-14.5 16.5q-25 28 -25 62q0 10 4.5 20.5t13 19.5t15.5 15.5t16.5 14t12.5 10.5q5 4 15 4q13 0 13 -6q0 -1 -8.5 -8t-8.5 -12q0 -4 8 -4 q10 0 23.5 4.5t35.5 16t39.5 21.5t54 31t60.5 35q11 7 39.5 29t54 36.5t48.5 16.5q5 0 15 -2q12 -6 23 -8.5t14 -4.5q13 -7 20.5 -12t16 -17t8.5 -26q0 -22 -21 -51q-31 -42 -78.5 -111t-118.5 -176.5t-119 -198t-48 -124.5q0 -12 8 -12q128 0 654 599l1 1l1 1l1 1l1 1l1 1 l51 56l-5 -7q16 21 30.5 28t44.5 7q7 0 22 -0.5t23 -0.5q6 0 16 1t14 1q13 0 30.5 -12t17.5 -21q-3 -13 -79.5 -140.5t-219 -360.5t-214.5 -353h44q60 0 69 -4q10 -6 24.5 -29.5t23.5 -30.5q7 -5 7 -15q0 -21 -20 -33t-43 -15q-132 -20 -197 -28q-72 -124 -99 -179 q40 41 96 87q6 4 7 4q7 0 11.5 -5.5t4.5 -11.5q0 -4 -2 -5q-10 -12 -53 -68t-71 -88q-15 -17 -31.5 -43.5t-27.5 -37.5t-28 -11q-49 0 -82 41.5t-33 70.5q0 41 109 225q-84 -7 -182 -7q-20 0 -38 9t-18 28q24 30 31 48q6 20 44.5 47t61.5 30q94 12 208 17q158 245 321 478 q-378 -450 -601 -450q-27 0 -52.5 15.5t-35.5 36.5q-13 25 -13 82z" />
<glyph unicode="&#xa6;" horiz-adv-x="768" d="M51 -201q0 10 1 13q49 127 206 434.5t204 347.5q9 9 27 9q10 0 28.5 -1t24.5 -1q13 0 26 0.5t16 0.5q22 0 22 -16q0 -4 -1 -6q-54 -97 -96 -176.5t-69.5 -134.5t-96.5 -194.5t-133 -267.5q-10 -21 -29 -32l-7 -3q-6 -3 -19.5 -7.5t-28.5 -8.5q-2 -1 -8 -1t-7 -1 q-4 -7 -18 -7q-3 0 -4 1q-5 0 -20 5.5t-15 8.5q-3 8 -3 37zM610 878q0 11 1 13q44 115 217 427.5t221 354.5q9 9 27 9q11 0 29 -1t24 -1q13 0 26.5 0.5t16.5 0.5q22 0 22 -16q0 -4 -1 -6q-41 -73 -117 -200.5t-141 -248t-166 -323.5q-13 -25 -29 -33l-6 -2q-7 -3 -20.5 -7.5 t-28.5 -8.5q-2 -1 -7.5 -1t-6.5 -1q-6 -8 -19 -8q-3 0 -4 1q-5 0 -20 6t-15 9q-3 6 -3 36z" />
<glyph unicode="&#xa7;" horiz-adv-x="850" d="M88 36q0 61 33 102q23 28 73.5 52t92.5 24q11 0 18.5 -2.5t10.5 -6t6.5 -8t7.5 -6.5q8 -3 9 -10t-2.5 -15t-8.5 -16t-10.5 -15.5t-6.5 -10.5q92 0 171.5 22.5t126.5 55.5t73 66t26 58q0 18 -42.5 35t-103 34.5t-121 40t-103 60.5t-42.5 87q0 73 46.5 124t146.5 97 q-56 13 -82.5 40t-26.5 75q0 60 36.5 117.5t95.5 101t130.5 80.5t143.5 60.5t133.5 36.5t100.5 13q138 0 138 -77q0 -60 -32 -101q-23 -28 -73.5 -52t-92.5 -24q-11 0 -18.5 2.5t-10.5 6t-6.5 8t-7.5 6.5q-8 3 -9 10t2.5 15t8.5 16t10.5 15.5t6.5 10.5q-86 -5 -183.5 -49 t-155.5 -89t-58 -63q0 -8 42.5 -19t102.5 -27t120.5 -39.5t103 -66.5t42.5 -99q0 -79 -51.5 -128.5t-150.5 -99.5q118 -34 118 -120q0 -89 -66 -167.5t-164.5 -128.5t-207.5 -79t-201 -29q-139 0 -139 76zM467 618q0 -49 118 -84q69 16 129 52t60 87q0 67 -145 88 q-82 -19 -122 -63.5t-40 -79.5z" />
<glyph unicode="&#xa8;" horiz-adv-x="819" d="M504 1003q0 53 38 110.5t105 57.5q28 0 50 -21t22 -61q0 -57 -47 -113.5t-107 -56.5q-29 0 -45 22.5t-16 61.5zM803 999q0 16 11 42t30.5 54.5t54 49t74.5 20.5q31 0 53.5 -18.5t22.5 -59.5q0 -60 -51.5 -114t-118.5 -54q-37 0 -56.5 22t-19.5 58z" />
<glyph unicode="&#xa9;" horiz-adv-x="1536" d="M286 369q0 119 36.5 245t95.5 232.5t133.5 203.5t149.5 165t144.5 108t118.5 41h8q10 0 38 14t63 31t101.5 31t143.5 14q45 0 100 -21t108 -59.5t88.5 -104.5t35.5 -145q0 -156 -34 -302.5t-92.5 -265.5t-136.5 -223t-168 -180t-185 -131t-189 -82.5t-178 -27.5 q-63 0 -123.5 33t-105.5 85t-80.5 113.5t-53.5 120.5t-18 105zM444 397q0 -56 37 -121.5t106 -115t146 -49.5q126 0 260.5 81.5t236.5 204t168 273t66 282.5q0 157 -68.5 260t-138.5 103q-71 0 -152 -32t-112 -54q-106 -75 -189.5 -145.5t-141 -130.5t-98 -122t-64 -112 t-36.5 -109t-16.5 -105.5t-3.5 -107.5zM585 524q0 68 32.5 150.5t91.5 160.5t132.5 143t164.5 104.5t179 39.5q54 0 97 -31t43 -81q0 -58 -53.5 -133.5t-108.5 -75.5q-64 0 -64 61q0 16 30 57t30 60q0 10 -11 10q-62 0 -136 -49.5t-132 -120t-97.5 -150.5t-39.5 -138 q0 -109 90 -109q35 0 74 13.5t70 32.5t62 44t51 44.5t37 38t19 19.5q10 9 21 9q17 0 22 -19q1 -9 1 -27q0 -54 -27.5 -104.5t-69.5 -86t-91.5 -62t-95 -39.5t-79.5 -13q-118 0 -180 69.5t-62 182.5z" />
<glyph unicode="&#xaa;" horiz-adv-x="578" d="M187 492q0 67 41 67q27 3 81 3q36 0 66.5 -1.5t39.5 -1.5q31 0 91.5 1.5t69.5 1.5q29 -2 39.5 -12t10.5 -36q0 -49 -20 -63t-68 -14l-113 6q-21 0 -106 -7.5t-103 -7.5q-10 1 -16.5 6.5t-9 16.5t-3 19t-0.5 22zM269 742q0 21 13 49q104 241 426 436q13 8 43 8 q36 0 74 -21t42 -59q11 -16 11 -27q0 -19 -18 -43q-3 -4 -25 -34l-27.5 -37.5t-24.5 -34t-26 -38t-22 -35.5t-23 -40.5t-18 -38t-17 -42.5l28 20q127 92 154 92q14 0 20.5 -7t6.5 -15q0 -15 -8 -35q-29 -57 -106.5 -127t-139.5 -70q-22 0 -51 29.5t-29 55.5q0 24 22 75 q-145 -170 -202 -170q-35 0 -69 40.5t-34 68.5zM388 775q214 157 371 378q0 2 -2 0q-116 -69 -213 -167t-156 -211z" />
<glyph unicode="&#xab;" horiz-adv-x="766" d="M167 449q0 38 52 67q28 16 64.5 49t56.5 54t66 73.5t49 55.5q22 24 39 24q35 0 35 -104q0 -39 -6.5 -58t-28.5 -32q-133 -81 -178 -148q31 -117 45 -133q15 -19 15 -60q0 -56 -25.5 -107.5t-63.5 -51.5q-28 0 -37.5 11.5t-11.5 43.5q-5 65 -26 157.5t-38 137.5 q-7 8 -7 21zM421 454q0 34 52 68q48 31 80.5 54.5t52 39.5t68 57.5t96.5 80.5q2 2 8 7t9.5 8t9.5 6t12 3q35 0 35 -104q0 -39 -6 -57.5t-29 -32.5q-36 -23 -120 -73.5t-120 -74.5q11 -58 26.5 -94t27 -46.5t19.5 -28t8 -45.5q0 -56 -25.5 -107.5t-63.5 -51.5 q-28 0 -37.5 12.5t-11.5 43.5q-9 63 -15 96t-12.5 59t-11.5 38.5t-18.5 48t-26.5 73.5q-7 8 -7 20z" />
<glyph unicode="&#xac;" horiz-adv-x="850" d="M261 700q0 18 10 48q2 5 6 15.5t5 14t4.5 11t5.5 10l6 7.5t8 6t9.5 3.5t12 3t15.5 0.5q5 0 92.5 0.5t145 0t138 -2t130.5 -6.5t64 -13q29 -17 33.5 -50t-12.5 -77t-38 -85.5t-48.5 -93.5t-39.5 -83q-3 -7 -9 -24.5t-10 -27t-10 -22t-12.5 -18t-13.5 -5.5 q-59 0 -90.5 29.5t-3.5 85.5q9 22 53 92t70 120t8 52q-93 6 -186.5 2t-197.5 -12.5t-108 -8.5q-22 0 -29.5 6t-7.5 22z" />
<glyph unicode="&#xad;" horiz-adv-x="650" d="M150 451q0 10 10.5 25t12.5 24q5 23 37.5 53t49.5 32q28 3 85 7t85 7q86 6 146 6q46 0 53 -4q10 -7 20.5 -28.5t16.5 -28.5q12 -13 12 -30q0 -28 -18 -44.5t-38 -18.5q-25 -5 -53 -8.5t-62.5 -7t-53.5 -5.5q-43 -6 -83 -14t-72 -12t-84 -5h-5q-20 -2 -39.5 11t-19.5 41z " />
<glyph unicode="&#xae;" horiz-adv-x="1024" d="M461 922q0 100 41.5 197.5t101.5 165t120.5 113t106.5 57.5q2 1 15.5 4.5t24.5 6.5t32 7t41.5 6.5t49.5 4.5t60 2q61 0 137 -62t76 -149q0 -125 -35 -235t-92 -187t-129 -133.5t-146.5 -83.5t-143.5 -27q-48 0 -93.5 19t-83 56t-60.5 99t-23 139zM551 939 q0 -112 54 -163.5t134 -51.5q83 0 162 51q-19 35 -41 114.5t-29 125.5q-14 -3 -41 -3q-27 -49 -82 -200q-10 -16 -35 -16q-23 0 -42.5 13t-19.5 32q0 1 0.5 3t0.5 3q32 156 182 387q-4 0 -12 -1t-12 -1q-10 0 -10 7q0 3 16 32q15 23 55.5 37t65.5 14q83 0 133.5 -30 t50.5 -83q0 -50 -49.5 -103t-116.5 -75q5 -30 30 -90t48 -92q74 72 120 166.5t46 181.5t-47.5 137.5t-91.5 50.5q-42 0 -99.5 -11t-72.5 -17q-68 -30 -127 -88.5t-94.5 -121t-55.5 -118.5t-20 -90zM833 1094h10q41 0 85.5 37t44.5 78q0 15 -8.5 23t-17 9t-26.5 1h-16 q-12 -26 -35 -71.5t-37 -76.5z" />
<glyph unicode="&#xaf;" horiz-adv-x="819" d="M519 1003q0 136 72 136q49 0 106 -5t107 -5q88 0 196 26q4 2 17 2q22 0 22 -53q0 -22 -6 -40t-13 -31t-22.5 -23t-25.5 -16t-32.5 -10.5t-32 -6.5t-34.5 -3t-31 -1h-30q-132 0 -260 -8q-3 0 -7 -1t-8 -1q-18 0 -18 40z" />
<glyph unicode="&#xb0;" horiz-adv-x="410" d="M377 973q0 52 31 103.5t55 49.5q45 86 149 86q59 0 94 -32t35 -80q0 -93 -64 -172.5t-169 -79.5q-66 0 -98.5 36.5t-32.5 88.5zM475 965q0 -16 7.5 -25t13.5 -10.5t12 -1.5q30 0 52.5 19.5t34 49t16.5 55.5t5 47q0 42 -22 42q-15 0 -26 -18t-21 -36t-21 -18q-7 0 -18 8 q-33 -57 -33 -112z" />
<glyph unicode="&#xb1;" horiz-adv-x="900" d="M192 203q0 45 21 76.5t58 31.5q99 0 176.5 -5t79.5 -5q262 -8 314 -8q16 0 25.5 -22.5t9.5 -43.5q0 -38 -25.5 -60t-73.5 -22q-45 0 -150.5 6.5t-170.5 6.5q-44 0 -124 -2t-93 -2q-47 0 -47 49zM250 639q0 6 3 12t10.5 20.5t11.5 22t11 19.5t12 19t11.5 14.5t12 10.5 t11.5 3q127 0 217 -8q25 75 61 147q2 3 7 20t11 29.5t13 12.5q20 0 59 -23t39 -49q0 -43 -38 -141q148 -7 221 -7q16 0 30 -9t14 -21q0 -5 -3 -9q-15 -21 -28 -46t-19 -35.5t-20 -18.5t-38 -8q-20 0 -215 10q-10 -24 -26 -78q-45 -151 -70 -151q-11 0 -19 6.5t-18.5 23 t-15.5 21.5q-5 6 -14.5 16.5t-14.5 16.5t-9.5 13t-4.5 13q0 3 2 7q3 6 24.5 57t24.5 57q-152 -4 -203 -4q-21 0 -35.5 11t-14.5 26z" />
<glyph unicode="&#xb2;" horiz-adv-x="500" d="M144 525q0 11 13 40q5 8 20 24t35 35.5t28 27.5q21 21 103 87.5t110 96.5q17 18 110 108q47 46 63.5 62t47 47t41 47t10.5 25q0 4 -14 4q-38 0 -114 -48.5t-151 -143.5q1 1 1 -6q-7 -15 -26.5 -24.5t-32.5 -9.5q-9 0 -26.5 6.5t-27.5 16.5q-9 5 -9 27q0 26 37 73.5 t94 95.5t136 83.5t151 35.5q45 0 70.5 -34.5t25.5 -66.5q0 -24 -18 -57.5t-55.5 -76.5t-72 -80.5t-93 -91t-91.5 -84t-93 -83t-75 -65.5q145 27 210 27q27 0 34 -18q0 -2 2 -4h-1q8 -4 15 -28t7 -37v-5q0 -27 -22 -31q-58 -11 -196.5 -21t-174.5 -14q-25 0 -47 15.5 t-24 44.5z" />
<glyph unicode="&#xb3;" horiz-adv-x="547" d="M208 545q0 31 27 60t53 29q9 0 13.5 -8.5t5.5 -19t7 -19t19 -8.5q49 0 114.5 23.5t113 57t47.5 59.5q-2 23 -41 37t-114 14q-12 0 -21 8t-13 20t-4 26q0 18 12 33.5t25 24.5t36 22t32 19q6 4 19 12q39 27 63.5 43.5t61.5 45t56 51t19 38.5q0 6 -13 6q-45 0 -153.5 -66.5 t-152.5 -139.5q-8 -16 -22 -16q-25 0 -41 16.5t-17 38.5v9q2 26 39 69t92 85t131.5 73t147.5 31q50 0 75 -25.5t25 -60.5q0 -50 -58.5 -121t-187.5 -151q50 -6 88 -36.5t38 -72.5v-2q-1 -3 -1 -5q-6 -65 -72 -132.5t-163.5 -110.5t-189.5 -43q-48 0 -72 27.5t-24 58.5z" />
<glyph unicode="&#xb4;" horiz-adv-x="819" d="M576 915q0 9 5 19q22 58 65.5 105.5t118.5 107.5q29 24 68 51.5t54 41.5t21 32q7 18 19 18q28 0 46.5 -34.5t18.5 -65.5q0 -82 -84 -137q-27 -26 -150 -95t-159 -69q-11 0 -17 8.5t-6 17.5z" />
<glyph unicode="&#xb5;" horiz-adv-x="810" d="M-236 -252q0 55 24 96q2 4 69 111t168 271.5t188 312.5q13 22 30.5 52.5t27.5 47t23 38.5t21 33.5t18 25.5t17.5 21t16.5 13.5t17 9t17 2.5q24 0 46 -24t22 -41q0 -14 -58.5 -109t-125 -208.5t-80.5 -164.5q-2 -15 -3 -36t12 -40.5t37 -19.5q57 0 191 147.5t236 344.5 q28 54 56 94t42 49t47 19t64 11q11 0 16 -1q7 -1 15 -17t8 -25l-1 -3q-49 -95 -99 -181t-58 -102q-118 -244 -118 -318q0 -42 32 -42q43 8 61 -27q19 -36 -9 -70q-35 -41 -115 -41q-13 0 -31.5 5.5t-40 17.5t-36 36.5t-14.5 57.5q0 28 1 42t9.5 42.5t25.5 59.5 q-38 -47 -61.5 -75.5t-62.5 -68.5t-69.5 -62t-69 -38.5t-75.5 -16.5q-39 0 -72 33.5t-24 95.5q-67 -101 -111 -177t-58 -108.5t-30 -77t-23 -61.5q-8 -19 -41 -19q-6 0 -21.5 9t-32.5 30t-18 46z" />
<glyph unicode="&#xb6;" horiz-adv-x="1314" d="M232 -189q238 457 570 950q-45 22 -72.5 38.5t-56 41t-41.5 55.5t-13 70q0 110 79 205.5t207 158.5t287.5 99t322.5 36q25 0 59 -3.5t77.5 -13t73 -30.5t29.5 -51q0 -25 -22.5 -43.5t-55.5 -9.5q-106 -141 -319.5 -483.5t-297.5 -502.5q-52 -99 -134.5 -265.5 t-127 -252.5t-53.5 -89q-12 -2 -15 -2q-13 0 -20 9.5t-11 9.5q-1 0 -9 -4t-23 -4q-2 0 -14 0.5t-28 0.5q-19 0 -31 9.5t-12 26.5q0 22 15 58t29 60q20 34 137 247.5t235 419.5t179 290q79 110 144.5 209t98 146.5t63.5 81.5q1 1 14.5 17t26.5 32t13 17q0 13 -66 13 q-34 0 -80 -36t-111 -121.5t-120 -164t-146.5 -228.5t-149 -246.5t-166.5 -282.5q-55 -94 -137.5 -254t-137 -264t-62.5 -107q-9 -3 -15 -3q-102 -8 -131.5 31t18.5 129z" />
<glyph unicode="&#xb7;" horiz-adv-x="510" d="M237 476q0 74 52.5 156.5t123.5 82.5q69 0 69 -90q0 -74 -53 -150.5t-127 -76.5q-31 0 -48 20.5t-17 57.5z" />
<glyph unicode="&#xb8;" horiz-adv-x="655" d="M70 -403q0 38 17 67t40 29q6 0 8.5 -7.5t6.5 -7.5q67 5 114 15.5t65.5 21.5t18.5 21q0 14 -17.5 23.5t-42 17t-49 18t-42 31t-17.5 50.5q0 42 38 94t83 52q19 0 34.5 -5.5t15.5 -12.5q0 -3 -6.5 -9.5t-10.5 -6.5q-42 -44 -42 -68q0 -13 27 -22t60 -16t60 -31t27 -64 q0 -27 -11 -57q-36 -98 -118 -142.5t-185 -44.5q-46 0 -60 8t-14 46z" />
<glyph unicode="&#xb9;" horiz-adv-x="304" d="M167 525q20 44 131.5 217t195.5 287q-25 -21 -35 -21q-12 0 -17 16t-7 18q-7 5 -5 18q0 22 96.5 97.5t129.5 75.5q20 0 41.5 -21.5t21.5 -41.5q-1 -9 -78 -120q-98 -140 -220.5 -326.5t-143.5 -240.5q-2 -3 -22 -11t-30 -8q-8 0 -18 16q-12 19 -22 30q-1 1 -6 3.5t-9 6 t-3 5.5z" />
<glyph unicode="&#xba;" horiz-adv-x="455" d="M141 445q0 65 39 69q62 5 109 5h57q27 1 67 3.5t54 2.5q31 0 41 -11.5t10 -44.5q0 -64 -47 -67q-14 -2 -39 -2q-12 0 -35 1t-36 1q-21 0 -96 -9.5t-93 -9.5q-31 0 -31 62zM272 716q0 43 30.5 108.5t77 132.5t87 118.5t74.5 88.5q32 35 64.5 53t78.5 18q53 0 86 -34 t33 -83q0 -42 -10 -71q-48 -158 -148 -283t-248 -176q-21 -6 -30 -6q-43 0 -69 46.5t-26 87.5zM367 684l12 7q108 88 194 198.5t103 212.5q3 12 3 14q0 19 -5 19q-11 0 -25 -14q-87 -72 -165 -186t-115 -222q-2 -14 -2 -29z" />
<glyph unicode="&#xbb;" horiz-adv-x="768" d="M44 180q0 62 55 103q10 8 95.5 62.5t133.5 92.5q-17 52 -39 88.5t-34 55t-13 36.5q0 54 25.5 113.5t58.5 59.5q14 0 23 -3.5t14 -13.5t7 -16.5t5 -22.5q2 -23 4.5 -42.5t6.5 -39t6 -32t8 -32t8 -26.5t10 -28.5t9.5 -25.5t12 -29.5t11.5 -28.5q12 -17 12 -37 q0 -46 -51 -76q-68 -32 -112.5 -65.5t-90.5 -78t-77 -69.5q-36 -49 -54 -49q-34 0 -34 104zM359 182q0 39 6 57.5t29 32.5q133 80 180 148q-4 14 -10.5 47t-12.5 55t-14 31q-14 17 -14 55q0 55 24.5 109.5t53.5 54.5q28 0 37.5 -11.5t11.5 -43.5q5 -64 25.5 -157t37.5 -138 q6 -9 6 -18q0 -23 -51 -70q-161 -148 -235 -232q-22 -24 -39 -24q-35 0 -35 104z" />
<glyph unicode="&#xbc;" horiz-adv-x="1206" d="M150 64q0 21 2 30q4 25 7 39.5t5.5 24.5t8 19t9 13.5t15 17.5t19.5 22q244 287 516 586.5t367 408.5q3 2 8.5 7t10 8t10 6t10.5 3q18 0 18 -31q0 -34 -3 -53q0 -2 -1 -12t-2 -14t-4 -15t-6.5 -18.5t-10.5 -18.5t-16 -22q-72 -86 -231.5 -264.5t-314.5 -364t-330 -414.5 q-4 -5 -12 -20t-16 -22t-20 -7q-19 0 -29 27.5t-10 63.5zM167 525q20 44 131.5 217t195.5 287q-25 -21 -35 -21q-12 0 -17 16t-7 18q-7 5 -5 18q0 22 96.5 97.5t129.5 75.5q20 0 41.5 -21.5t21.5 -41.5q-1 -9 -78 -120q-98 -140 -220.5 -326.5t-143.5 -240.5q-2 -3 -22 -11 t-30 -8q-8 0 -18 16q-12 19 -22 30q-1 1 -6 3.5t-9 6t-3 5.5zM624 280q0 26 2 32q24 51 154.5 159t263 196t169.5 93q5 0 49 -14q3 -2 8.5 -11.5t10.5 -10.5q0 -1 0.5 -4l0.5 -3q4 -10 4 -15t-2 -7q-136 -191 -218 -327q109 10 143 10q13 0 13 -12q0 -9 -11 -23 q-55 -74 -79 -85q-30 -5 -139 -14q-24 -43 -74.5 -124.5t-81.5 -134.5q-4 -8 -13 -14t-21.5 -9.5t-24 -6t-26 -5t-22.5 -5.5q-9 0 -21 10.5t-13 19.5q42 81 154 260q-182 -13 -198 -13q-28 0 -28 58zM778 332q60 11 148 22q77 121 167 240q-42 -34 -99 -81.5t-116.5 -98 t-99.5 -82.5z" />
<glyph unicode="&#xbd;" horiz-adv-x="1186" d="M150 64q0 21 2 30q4 25 7 39.5t5.5 24.5t8 19t9 13.5t15 17.5t19.5 22q244 287 516 586.5t367 408.5q3 2 8.5 7t10 8t10 6t10.5 3q18 0 18 -31q0 -34 -3 -53q0 -2 -1 -12t-2 -14t-4 -15t-6.5 -18.5t-10.5 -18.5t-16 -22q-72 -86 -231.5 -264.5t-314.5 -364t-330 -414.5 q-4 -5 -12 -20t-16 -22t-20 -7q-19 0 -29 27.5t-10 63.5zM167 525q20 44 131.5 217t195.5 287q-25 -21 -35 -21q-12 0 -17 16t-7 18q-7 5 -5 18q0 22 96.5 97.5t129.5 75.5q20 0 41.5 -21.5t21.5 -41.5q-1 -9 -78 -120q-98 -140 -220.5 -326.5t-143.5 -240.5q-2 -3 -22 -11 t-30 -8q-8 0 -18 16q-12 19 -22 30q-1 1 -6 3.5t-9 6t-3 5.5zM611 47q0 11 13 40q5 8 20 24t35 35.5t28 27.5q21 21 103 87.5t110 96.5q17 18 110 108q47 46 63.5 62t47 47t41 47t10.5 25q0 4 -14 4q-38 0 -114 -48.5t-151 -143.5q1 1 1 -6q-7 -15 -26.5 -24.5t-32.5 -9.5 q-9 0 -26.5 6.5t-27.5 16.5q-9 5 -9 27q0 26 37 73.5t94 95.5t136 83.5t151 35.5q45 0 70.5 -34.5t25.5 -66.5q0 -24 -18 -57.5t-55.5 -76.5t-72 -80.5t-93 -91t-91.5 -84t-93 -83t-75 -65.5q145 27 210 27q27 0 34 -18q0 -2 2 -4h-1q8 -4 15 -28t7 -37v-5q0 -27 -22 -31 q-58 -11 -196.5 -21t-174.5 -14q-25 0 -47 15.5t-24 44.5z" />
<glyph unicode="&#xbe;" horiz-adv-x="1416" d="M208 545q0 31 27 60t53 29q9 0 13.5 -8.5t5.5 -19t7 -19t19 -8.5q49 0 114.5 23.5t113 57t47.5 59.5q-2 23 -41 37t-114 14q-12 0 -21 8t-13 20t-4 26q0 18 12 33.5t25 24.5t36 22t32 19q6 4 19 12q39 27 63.5 43.5t61.5 45t56 51t19 38.5q0 6 -13 6q-45 0 -153.5 -66.5 t-152.5 -139.5q-8 -16 -22 -16q-25 0 -41 16.5t-17 38.5v9q2 26 39 69t92 85t131.5 73t147.5 31q50 0 75 -25.5t25 -60.5q0 -50 -58.5 -121t-187.5 -151q50 -6 88 -36.5t38 -72.5v-2q-1 -3 -1 -5q-6 -65 -72 -132.5t-163.5 -110.5t-189.5 -43q-48 0 -72 27.5t-24 58.5z M380 64q0 21 2 30q4 25 7 39.5t5.5 24.5t8 19t9 13.5t15 17.5t19.5 22q244 287 516 586.5t367 408.5q3 2 8.5 7t10 8t10 6t10.5 3q18 0 18 -31q0 -34 -3 -53q0 -2 -1 -9.5t-1.5 -12t-2.5 -12.5t-4.5 -15t-6.5 -15.5t-10 -17.5t-14 -18q-72 -86 -231.5 -264.5t-314.5 -364 t-330 -414.5q-4 -5 -12 -20t-16 -22t-20 -7q-19 0 -29 27.5t-10 63.5zM834 280q0 26 2 32q24 51 154.5 159t263 196t169.5 93q5 0 49 -14q2 -1 3.5 -3t2.5 -4.5t2.5 -5t3 -4.5t3.5 -3.5t4 -1.5q0 -1 0.5 -4l0.5 -3q4 -10 4 -15t-2 -7q-136 -191 -218 -327q109 10 143 10 q13 0 13 -12q0 -9 -11 -23q-55 -74 -79 -85q-30 -5 -139 -14q-24 -43 -74.5 -124.5t-81.5 -134.5q-7 -13 -24.5 -20t-45.5 -12t-37 -8q-9 0 -21 10.5t-13 19.5q42 81 154 260q-182 -13 -198 -13q-28 0 -28 58zM988 332q60 11 148 22q77 121 167 240q-42 -34 -99 -81.5 t-116.5 -98t-99.5 -82.5z" />
<glyph unicode="&#xbf;" horiz-adv-x="1098" d="M110 247q0 80 30 149t82 121t116 96t138.5 83.5t143 75.5t136.5 80.5t112 88.5q19 20 22.5 45.5t0.5 41.5t11 28t54 12q11 0 25.5 -2.5t36 -9t35.5 -23.5t14 -42q0 -95 -82 -170q-49 -46 -144 -105t-185 -112t-177 -112t-140 -124t-53 -128q0 -64 52 -97.5t171 -33.5 q91 0 197 38t179.5 99t73.5 119q0 4 -10.5 9.5t-14.5 5.5q-16 0 -34 -11.5t-21 -11.5q-6 0 -10.5 6t-4.5 13q0 46 41 70t112 24q43 0 90.5 -39t47.5 -84q0 -82 -61.5 -159t-155.5 -129t-205 -83.5t-210 -31.5q-113 0 -205 33.5t-150 103.5t-58 166zM1037 1290q0 56 52.5 114 t109.5 58q59 0 59 -60q0 -61 -51.5 -115.5t-112.5 -54.5q-26 0 -41.5 15t-15.5 43z" />
<glyph unicode="&#xc0;" horiz-adv-x="1203" d="M60 51q0 100 258 428q-99 0 -121 -2q-16 -1 -40.5 -5.5t-33.5 -4.5q-14 0 -20.5 9t-6.5 34q0 48 53.5 82.5t143.5 34.5q7 0 25.5 1t53 2.5t73.5 2.5q218 256 456 475t412 307q28 14 41 13q20 0 43 -25q4 9 9 18t7.5 14.5t5.5 11.5t5 9t3.5 6t3 4.5l3 3t3.5 2t4 0.5h5 q15 0 61 -32t46 -60q0 -9 -2 -14q-37 -111 -273.5 -633t-286.5 -614q-25 -45 -39 -68t-37.5 -51.5t-49.5 -40.5t-58 -12q-26 0 -46 -6.5t-24 -6.5q-32 0 -32 15q0 3 10 31q7 15 227 479q-235 9 -413 14q-171 -215 -310 -450q-17 -33 -32 -46.5t-38 -13.5q-29 0 -59 26.5 t-30 61.5zM660 633q177 -4 358 -15q182 383 309 644q-365 -277 -667 -629zM1245 1905q0 20 47.5 46.5t92.5 26.5q10 0 17.5 -2.5t13.5 -10t10 -15.5t9.5 -25t9.5 -32t11.5 -43t14.5 -52q1 -3 18 -53.5t26 -86t9 -57.5q0 -16 -7.5 -22t-25.5 -6q-24 0 -43.5 8t-32 24.5 t-19.5 28.5t-15.5 33t-10.5 25q-27 54 -59.5 102t-49 71.5t-16.5 39.5z" />
<glyph unicode="&#xc1;" horiz-adv-x="1203" d="M60 51q0 100 258 428q-99 0 -121 -2q-16 -1 -40.5 -5.5t-33.5 -4.5q-14 0 -20.5 9t-6.5 34q0 48 53.5 82.5t143.5 34.5q7 0 25.5 1t53 2.5t73.5 2.5q218 256 456 475t412 307q28 14 41 13q20 0 43 -25q4 9 9 18t7.5 14.5t5.5 11.5t5 9t3.5 6t3 4.5l3 3t3.5 2t4 0.5h5 q15 0 61 -32t46 -60q0 -9 -2 -14q-37 -111 -273.5 -633t-286.5 -614q-25 -45 -39 -68t-37.5 -51.5t-49.5 -40.5t-58 -12q-26 0 -46 -6.5t-24 -6.5q-32 0 -32 15q0 3 10 31q7 15 227 479q-235 9 -413 14q-171 -215 -310 -450q-17 -33 -32 -46.5t-38 -13.5q-29 0 -59 26.5 t-30 61.5zM660 633q177 -4 358 -15q182 383 309 644q-365 -277 -667 -629zM1468 1599q0 9 5 19q22 58 65.5 105.5t118.5 107.5q29 24 68 51.5t54 41.5t21 32q7 18 19 18q28 0 46.5 -34.5t18.5 -65.5q0 -82 -84 -137q-27 -26 -150 -95t-159 -69q-11 0 -17 8.5t-6 17.5z" />
<glyph unicode="&#xc2;" horiz-adv-x="1203" d="M60 51q0 100 258 428q-99 0 -121 -2q-16 -1 -40.5 -5.5t-33.5 -4.5q-14 0 -20.5 9t-6.5 34q0 48 53.5 82.5t143.5 34.5q7 0 25.5 1t53 2.5t73.5 2.5q218 256 456 475t412 307q28 14 41 13q20 0 43 -25q4 9 9 18t7.5 14.5t5.5 11.5t5 9t3.5 6t3 4.5l3 3t3.5 2t4 0.5h5 q15 0 61 -32t46 -60q0 -9 -2 -14q-37 -111 -273.5 -633t-286.5 -614q-25 -45 -39 -68t-37.5 -51.5t-49.5 -40.5t-58 -12q-26 0 -46 -6.5t-24 -6.5q-32 0 -32 15q0 3 10 31q7 15 227 479q-235 9 -413 14q-171 -215 -310 -450q-17 -33 -32 -46.5t-38 -13.5q-29 0 -59 26.5 t-30 61.5zM660 633q177 -4 358 -15q182 383 309 644q-365 -277 -667 -629zM1263 1614q0 18 9.5 37.5t33 43t40 38.5t53.5 45t50 41q97 83 146 139q11 21 55 21q42 0 69 -28.5t35 -61t14 -72t9 -47.5q2 -4 11 -27.5t14 -36.5t12 -34.5t10.5 -38.5t3.5 -31q0 -16 -7.5 -22.5 t-25.5 -6.5q-26 0 -47.5 7.5t-37 23.5t-27 32t-21.5 42.5t-16 44t-14.5 48t-12.5 44.5q-64 -64 -175 -145.5t-159 -81.5q-11 0 -16.5 8.5t-5.5 17.5z" />
<glyph unicode="&#xc3;" horiz-adv-x="1203" d="M60 51q0 100 258 428q-99 0 -121 -2q-16 -1 -40.5 -5.5t-33.5 -4.5q-14 0 -20.5 9t-6.5 34q0 48 53.5 82.5t143.5 34.5q7 0 25.5 1t53 2.5t73.5 2.5q218 256 456 475t412 307q28 14 41 13q20 0 43 -25q4 9 9 18t7.5 14.5t5.5 11.5t5 9t3.5 6t3 4.5l3 3t3.5 2t4 0.5h5 q15 0 61 -32t46 -60q0 -9 -2 -14q-37 -111 -273.5 -633t-286.5 -614q-25 -45 -39 -68t-37.5 -51.5t-49.5 -40.5t-58 -12q-26 0 -46 -6.5t-24 -6.5q-32 0 -32 15q0 3 10 31q7 15 227 479q-235 9 -413 14q-171 -215 -310 -450q-17 -33 -32 -46.5t-38 -13.5q-29 0 -59 26.5 t-30 61.5zM660 633q177 -4 358 -15q182 383 309 644q-365 -277 -667 -629zM1211 1632q0 60 49 118t107 90t94 32q41 0 75 -18.5t52 -40t41 -40t45 -18.5q47 0 80.5 16t48 34.5t31 34.5t32.5 16q22 0 34 -24.5t12 -54.5q0 -20 -7 -36q-34 -67 -99 -107t-141 -40 q-46 0 -83.5 19t-57.5 41t-43.5 41t-44.5 19q-27 0 -50.5 -12.5t-41 -31t-34.5 -36.5t-36.5 -30.5t-40.5 -12.5q-8 0 -15 12t-7 29z" />
<glyph unicode="&#xc4;" horiz-adv-x="1203" d="M60 51q0 100 258 428q-99 0 -121 -2q-16 -1 -40.5 -5.5t-33.5 -4.5q-14 0 -20.5 9t-6.5 34q0 48 53.5 82.5t143.5 34.5q7 0 25.5 1t53 2.5t73.5 2.5q218 256 456 475t412 307q28 14 41 13q20 0 43 -25q4 9 9 18t7.5 14.5t5.5 11.5t5 9t3.5 6t3 4.5l3 3t3.5 2t4 0.5h5 q15 0 61 -32t46 -60q0 -9 -2 -14q-37 -111 -273.5 -633t-286.5 -614q-25 -45 -39 -68t-37.5 -51.5t-49.5 -40.5t-58 -12q-26 0 -46 -6.5t-24 -6.5q-32 0 -32 15q0 3 10 31q7 15 227 479q-235 9 -413 14q-171 -215 -310 -450q-17 -33 -32 -46.5t-38 -13.5q-29 0 -59 26.5 t-30 61.5zM660 633q177 -4 358 -15q182 383 309 644q-365 -277 -667 -629zM1330 1687q0 53 38 110.5t105 57.5q28 0 50 -21t22 -61q0 -57 -47 -113.5t-107 -56.5q-29 0 -45 22.5t-16 61.5zM1629 1683q0 16 11 42t30.5 54.5t54 49t74.5 20.5q31 0 53.5 -18.5t22.5 -59.5 q0 -60 -51.5 -114t-118.5 -54q-37 0 -56.5 22t-19.5 58z" />
<glyph unicode="&#xc5;" horiz-adv-x="1203" d="M60 51q0 100 258 428q-99 0 -121 -2q-16 -1 -40.5 -5.5t-33.5 -4.5q-14 0 -20.5 9t-6.5 34q0 48 53.5 82.5t143.5 34.5q7 0 25.5 1t53 2.5t73.5 2.5q218 256 456 475t412 307q28 14 41 13q20 0 43 -25q4 9 9 18t7.5 14.5t5.5 11.5t5 9t3.5 6t3 4.5l3 3t3.5 2t4 0.5h5 q15 0 61 -32t46 -60q0 -9 -2 -14q-37 -111 -273.5 -633t-286.5 -614q-25 -45 -39 -68t-37.5 -51.5t-49.5 -40.5t-58 -12q-26 0 -46 -6.5t-24 -6.5q-32 0 -32 15q0 3 10 31q7 15 227 479q-235 9 -413 14q-171 -215 -310 -450q-17 -33 -32 -46.5t-38 -13.5q-29 0 -59 26.5 t-30 61.5zM660 633q177 -4 358 -15q182 383 309 644q-365 -277 -667 -629zM1355 1704q0 188 227 268q0 9 35.5 13.5t67.5 4.5q52 0 84.5 -33.5t32.5 -88.5q0 -52 -41.5 -124t-133.5 -134q-55 -37 -135 -37q-63 0 -100 40.5t-37 90.5zM1468 1741q0 -23 19.5 -33.5t42.5 -10.5 q60 0 104.5 43.5t44.5 86.5q0 6 -3 11.5t-9.5 10t-12.5 8.5t-16.5 8.5t-16.5 7t-17.5 6.5t-14.5 5q-21 1 -64 -29q-57 -40 -57 -114z" />
<glyph unicode="&#xc6;" horiz-adv-x="2062" d="M60 51q0 49 69 162.5t189 265.5q-99 0 -121 -2q-16 -1 -40.5 -5.5t-33.5 -4.5t-15 3.5t-9 13t-3 26.5q0 48 53.5 82.5t143.5 34.5q6 0 19 0.5t29 1.5t44.5 2t59.5 2q140 164 289 315t305 279.5t274 187.5q28 14 41 13q20 0 43 -25q4 9 9 18t7.5 14.5t5.5 11.5t5 9t3.5 6 t3 4.5l3 3t3.5 2t4 0.5h5q7 0 32 -13.5t50 -36.5t25 -42q0 -7 -1.5 -14t-3 -11.5t-5.5 -13t-6 -13.5q117 59 247 93.5t236 34.5q44 0 97.5 -7t69.5 -12q37 -18 60 -50.5t23 -51.5q0 -27 -5 -45t-17.5 -28.5t-21.5 -15.5t-28.5 -11t-27.5 -10q-78 -33 -164 -33 q-26 0 -50.5 7.5t-28.5 18.5q2 26 22 60q-95 -4 -197 -38.5t-176.5 -81t-122.5 -96.5t-48 -84q0 -20 23 -33.5t61 -20t72 -9t71 -2.5q56 0 83 12q24 11 59.5 19t68 11.5t60.5 3.5q29 0 49.5 -6.5t30.5 -18t10 -28.5q0 -14 -9 -39.5t-19.5 -46.5t-16.5 -27q-21 -19 -183 -46 q-47 -8 -59 -3q-124 -61 -219.5 -128t-148.5 -121.5t-87 -108t-45 -88.5t-11 -63q0 -99 137 -99q63 0 154.5 33t183.5 88t172.5 119t131 132.5t50.5 122.5q0 9 6 15t14.5 8.5t15.5 3.5t12 1q16 0 30 -5t29 -16.5t23.5 -35.5t8.5 -58q0 -45 -34 -105t-92 -123.5t-140 -125 t-172 -110t-195 -78.5t-202 -30q-67 0 -128.5 20.5t-111 69.5t-66.5 119q-2 -5 -7 -15q-14 -29 -21.5 -44.5t-22.5 -42.5t-26 -42t-28 -35t-32.5 -30t-36 -17.5t-41.5 -7.5q-26 0 -46 -6.5t-24 -6.5q-32 0 -32 15q0 3 10 31q7 15 227 479q-235 9 -413 14 q-171 -215 -310 -450q-17 -33 -32 -46.5t-38 -13.5q-29 0 -59 26.5t-30 61.5zM660 633q177 -4 358 -15q182 383 309 644q-365 -277 -667 -629zM1223 614q90 80 211 150q-76 17 -121 48q-45 -100 -90 -198z" />
<glyph unicode="&#xc7;" horiz-adv-x="1164" d="M164 309q0 121 50.5 255.5t136 257t202 235.5t242.5 196t264 132t262 49q29 0 62.5 -10t65.5 -28.5t53.5 -50t21.5 -69.5q0 -45 -26 -100.5t-68 -108t-95 -103.5t-105.5 -89t-101 -61t-81.5 -23q-49 0 -84 30.5t-35 61.5q0 17 10.5 46t26.5 29q-4 -5 -4 -10q0 -12 30 -12 q29 0 86 38t111 88.5t94.5 104t40.5 81.5q0 26 -35 26q-94 0 -259.5 -87.5t-305.5 -215.5q-105 -96 -191 -211.5t-140 -240.5t-54 -226q0 -63 33.5 -101t101.5 -38q71 0 166 40t180.5 98t161.5 119t121.5 107t46.5 57q1 8 9 8q10 0 17 -10.5t7 -28.5q0 -38 -17 -132 q-4 -20 -30 -56.5t-70 -82.5t-108.5 -93.5t-138 -88t-167.5 -67t-188 -28.5q-31 -36 -31 -56q0 -13 27 -22t60 -16t60 -31t27 -64q0 -27 -11 -57q-36 -98 -118 -142.5t-185 -44.5q-46 0 -60 8t-14 46t17 67t40 29q6 0 8.5 -7.5t6.5 -7.5q67 5 114 15.5t65.5 21.5t18.5 21 q0 14 -17.5 23.5t-42 17t-49 18t-42 31t-17.5 50.5q0 16 7 35.5t19.5 40.5t27.5 37q-86 29 -148 111.5t-62 188.5z" />
<glyph unicode="&#xc8;" horiz-adv-x="1232" d="M186 253q0 63 29 129t72.5 120t102 106.5t111 89t105.5 66.5q-206 47 -206 212q0 64 38 127.5t101.5 115.5t146 96.5t170 75t175.5 48t161 17.5q30 0 67 -3.5t63.5 -8t36.5 -7.5q37 -18 60 -50.5t23 -51.5q0 -27 -5 -45t-17.5 -28.5t-21.5 -15.5t-28.5 -11t-27.5 -10 q-78 -33 -164 -33q-26 0 -50.5 7.5t-28.5 18.5q2 26 22 60q-95 -4 -197 -38.5t-176.5 -81t-122.5 -96.5t-48 -84q0 -20 23 -33.5t61 -20t72 -9t71 -2.5q56 0 83 12q24 11 59.5 19t68 11.5t60.5 3.5q44 0 67 -14t23 -39q0 -14 -9 -39.5t-19.5 -46.5t-16.5 -27 q-21 -19 -183 -46q-47 -8 -59 -3q-124 -61 -219.5 -128t-148.5 -121.5t-87 -108t-45 -88.5t-11 -63q0 -99 137 -99q107 0 272 84t292.5 203.5t127.5 207.5q0 11 10.5 18t20 8.5t17.5 1.5q36 0 63.5 -25.5t27.5 -89.5q0 -54 -47 -128.5t-131 -151t-187 -142.5t-228.5 -108 t-241.5 -42q-58 0 -111.5 16.5t-100 49t-74.5 88.5t-28 127zM838 1880q0 20 47.5 46.5t92.5 26.5q10 0 17.5 -2.5t13.5 -10t10 -15.5t9.5 -25t9.5 -32t11.5 -43t14.5 -52q1 -3 18 -53.5t26 -86t9 -57.5q0 -16 -7.5 -22t-25.5 -6q-24 0 -43.5 8t-32 24.5t-19.5 28.5t-15.5 33 t-10.5 25q-27 54 -59.5 102t-49 71.5t-16.5 39.5z" />
<glyph unicode="&#xc9;" horiz-adv-x="1232" d="M186 253q0 63 29 129t72.5 120t102 106.5t111 89t105.5 66.5q-206 47 -206 212q0 64 38 127.5t101.5 115.5t146 96.5t170 75t175.5 48t161 17.5q30 0 67 -3.5t63.5 -8t36.5 -7.5q37 -18 60 -50.5t23 -51.5q0 -27 -5 -45t-17.5 -28.5t-21.5 -15.5t-28.5 -11t-27.5 -10 q-78 -33 -164 -33q-26 0 -50.5 7.5t-28.5 18.5q2 26 22 60q-95 -4 -197 -38.5t-176.5 -81t-122.5 -96.5t-48 -84q0 -20 23 -33.5t61 -20t72 -9t71 -2.5q56 0 83 12q24 11 59.5 19t68 11.5t60.5 3.5q44 0 67 -14t23 -39q0 -14 -9 -39.5t-19.5 -46.5t-16.5 -27 q-21 -19 -183 -46q-47 -8 -59 -3q-124 -61 -219.5 -128t-148.5 -121.5t-87 -108t-45 -88.5t-11 -63q0 -99 137 -99q107 0 272 84t292.5 203.5t127.5 207.5q0 11 10.5 18t20 8.5t17.5 1.5q36 0 63.5 -25.5t27.5 -89.5q0 -54 -47 -128.5t-131 -151t-187 -142.5t-228.5 -108 t-241.5 -42q-58 0 -111.5 16.5t-100 49t-74.5 88.5t-28 127zM1061 1574q0 9 5 19q22 58 65.5 105.5t118.5 107.5q29 24 68 51.5t54 41.5t21 32q7 18 19 18q28 0 46.5 -34.5t18.5 -65.5q0 -82 -84 -137q-27 -26 -150 -95t-159 -69q-11 0 -17 8.5t-6 17.5z" />
<glyph unicode="&#xca;" horiz-adv-x="1232" d="M186 253q0 63 29 129t72.5 120t102 106.5t111 89t105.5 66.5q-206 47 -206 212q0 64 38 127.5t101.5 115.5t146 96.5t170 75t175.5 48t161 17.5q30 0 67 -3.5t63.5 -8t36.5 -7.5q37 -18 60 -50.5t23 -51.5q0 -27 -5 -45t-17.5 -28.5t-21.5 -15.5t-28.5 -11t-27.5 -10 q-78 -33 -164 -33q-26 0 -50.5 7.5t-28.5 18.5q2 26 22 60q-95 -4 -197 -38.5t-176.5 -81t-122.5 -96.5t-48 -84q0 -20 23 -33.5t61 -20t72 -9t71 -2.5q56 0 83 12q24 11 59.5 19t68 11.5t60.5 3.5q44 0 67 -14t23 -39q0 -14 -9 -39.5t-19.5 -46.5t-16.5 -27 q-21 -19 -183 -46q-47 -8 -59 -3q-124 -61 -219.5 -128t-148.5 -121.5t-87 -108t-45 -88.5t-11 -63q0 -99 137 -99q107 0 272 84t292.5 203.5t127.5 207.5q0 11 10.5 18t20 8.5t17.5 1.5q36 0 63.5 -25.5t27.5 -89.5q0 -54 -47 -128.5t-131 -151t-187 -142.5t-228.5 -108 t-241.5 -42q-58 0 -111.5 16.5t-100 49t-74.5 88.5t-28 127zM856 1589q0 18 9.5 37.5t33 43t40 38.5t53.5 45t50 41q97 83 146 139q11 21 55 21q34 0 58 -17.5t35.5 -45.5t17 -55.5t9.5 -55t7 -35.5q2 -4 11 -27.5t14 -36.5t12 -34.5t10.5 -38.5t3.5 -31q0 -16 -7.5 -22.5 t-25.5 -6.5q-23 0 -42.5 6.5t-33.5 16.5t-26.5 27.5t-20.5 32.5t-16.5 38.5t-13.5 40t-12 42t-11 38.5q-64 -64 -175 -145.5t-159 -81.5q-11 0 -16.5 8.5t-5.5 17.5z" />
<glyph unicode="&#xcb;" horiz-adv-x="1232" d="M186 253q0 63 29 129t72.5 120t102 106.5t111 89t105.5 66.5q-206 47 -206 212q0 64 38 127.5t101.5 115.5t146 96.5t170 75t175.5 48t161 17.5q30 0 67 -3.5t63.5 -8t36.5 -7.5q37 -18 60 -50.5t23 -51.5q0 -27 -5 -45t-17.5 -28.5t-21.5 -15.5t-28.5 -11t-27.5 -10 q-78 -33 -164 -33q-26 0 -50.5 7.5t-28.5 18.5q2 26 22 60q-95 -4 -197 -38.5t-176.5 -81t-122.5 -96.5t-48 -84q0 -20 23 -33.5t61 -20t72 -9t71 -2.5q56 0 83 12q24 11 59.5 19t68 11.5t60.5 3.5q44 0 67 -14t23 -39q0 -14 -9 -39.5t-19.5 -46.5t-16.5 -27 q-21 -19 -183 -46q-47 -8 -59 -3q-124 -61 -219.5 -128t-148.5 -121.5t-87 -108t-45 -88.5t-11 -63q0 -99 137 -99q107 0 272 84t292.5 203.5t127.5 207.5q0 11 10.5 18t20 8.5t17.5 1.5q36 0 63.5 -25.5t27.5 -89.5q0 -54 -47 -128.5t-131 -151t-187 -142.5t-228.5 -108 t-241.5 -42q-58 0 -111.5 16.5t-100 49t-74.5 88.5t-28 127zM923 1662q0 22 8.5 49.5t25 55t45.5 45.5t64 18q28 0 50 -21t22 -61q0 -36 -20.5 -75t-57 -67t-76.5 -28q-29 0 -45 22.5t-16 61.5zM1222 1658q0 12 6.5 31.5t20.5 43t33 44t48 34t62 13.5q31 0 53.5 -18.5 t22.5 -59.5q0 -60 -51.5 -114t-118.5 -54q-37 0 -56.5 22t-19.5 58z" />
<glyph unicode="&#xcc;" horiz-adv-x="574" d="M-22 -10q0 49 4 59q21 71 231 400.5t427.5 643t263.5 349.5q14 11 37 11q19 0 45.5 -1.5t34.5 -1.5q13 0 28 1t19 1q26 0 26 -20q0 -6 -2 -9q-478 -703 -893 -1378q-22 -36 -39 -41q-1 0 -10 -3.5t-28.5 -9t-43.5 -9.5q-3 -1 -10.5 -1t-9.5 -1q-9 -10 -30 -10q-4 0 -5 1 q-7 0 -26 7.5t-19 11.5zM816 1883q0 20 47.5 46.5t92.5 26.5q10 0 17.5 -2.5t13.5 -10t10 -15.5t9.5 -25t9.5 -32t11.5 -43t14.5 -52q1 -3 18 -53.5t26 -86t9 -57.5q0 -16 -7.5 -22t-25.5 -6q-24 0 -43.5 8t-32 24.5t-19.5 28.5t-15.5 33t-10.5 25q-27 54 -59.5 102 t-49 71.5t-16.5 39.5z" />
<glyph unicode="&#xcd;" horiz-adv-x="574" d="M-22 -10q0 49 4 59q21 71 231 400.5t427.5 643t263.5 349.5q14 11 37 11q19 0 45.5 -1.5t34.5 -1.5q13 0 28 1t19 1q26 0 26 -20q0 -6 -2 -9q-478 -703 -893 -1378q-22 -36 -39 -41q-1 0 -10 -3.5t-28.5 -9t-43.5 -9.5q-3 -1 -10.5 -1t-9.5 -1q-9 -10 -30 -10q-4 0 -5 1 q-7 0 -26 7.5t-19 11.5zM1039 1577q0 9 5 19q22 58 65.5 105.5t118.5 107.5q29 24 68 51.5t54 41.5t21 32q7 18 19 18q28 0 46.5 -34.5t18.5 -65.5q0 -82 -84 -137q-27 -26 -150 -95t-159 -69q-11 0 -17 8.5t-6 17.5z" />
<glyph unicode="&#xce;" horiz-adv-x="574" d="M-22 -10q0 49 4 59q21 71 231 400.5t427.5 643t263.5 349.5q14 11 37 11q19 0 45.5 -1.5t34.5 -1.5q13 0 28 1t19 1q26 0 26 -20q0 -6 -2 -9q-478 -703 -893 -1378q-22 -36 -39 -41q-1 0 -10 -3.5t-28.5 -9t-43.5 -9.5q-3 -1 -10.5 -1t-9.5 -1q-9 -10 -30 -10q-4 0 -5 1 q-7 0 -26 7.5t-19 11.5zM834 1592q0 18 9.5 37.5t33 43t40 38.5t53.5 45t50 41q97 83 146 139q11 21 55 21q42 0 69 -28.5t35 -61t14 -72t9 -47.5q2 -4 11 -27.5t14 -36.5t12 -34.5t10.5 -38.5t3.5 -31q0 -16 -7.5 -22.5t-25.5 -6.5q-26 0 -47.5 7.5t-37 23.5t-27 32 t-21.5 42.5t-16 44t-14.5 48t-12.5 44.5q-64 -64 -175 -145.5t-159 -81.5q-11 0 -16.5 8.5t-5.5 17.5z" />
<glyph unicode="&#xcf;" horiz-adv-x="574" d="M-22 -10q0 49 4 59q21 71 231 400.5t427.5 643t263.5 349.5q14 11 37 11q19 0 45.5 -1.5t34.5 -1.5q13 0 28 1t19 1q26 0 26 -20q0 -6 -2 -9q-478 -703 -893 -1378q-22 -36 -39 -41q-1 0 -10 -3.5t-28.5 -9t-43.5 -9.5q-3 -1 -10.5 -1t-9.5 -1q-9 -10 -30 -10q-4 0 -5 1 q-7 0 -26 7.5t-19 11.5zM851 1665q0 53 38 110.5t105 57.5q28 0 50 -21t22 -61q0 -57 -47 -113.5t-107 -56.5q-29 0 -45 22.5t-16 61.5zM1150 1661q0 16 11 42t30.5 54.5t54 49t74.5 20.5q31 0 53.5 -18.5t22.5 -59.5q0 -60 -51.5 -114t-118.5 -54q-37 0 -56.5 22t-19.5 58z " />
<glyph unicode="&#xd0;" horiz-adv-x="1607" d="M300 121q0 33 8 65q26 96 260 450q-40 -3 -84.5 -0.5t-82.5 8t-62 24t-23 49.5q2 56 143 70q123 11 219 14q181 267 300 426q11 15 113 22q42 0 58 -6t16 -23q0 -14 -23 -46q-58 -81 -250 -373q13 -1 39 -1q270 -12 265 -123q-1 -15 -19 -33t-53 -17q-79 4 -126.5 11 t-165.5 12q-6 0 -19 -0.5t-20 -0.5q-296 -457 -296 -468q0 -13 57 -13q120 0 249.5 37.5t243.5 98.5t218 141.5t178 164.5t118 168.5t44 153.5q0 148 -130.5 248t-357.5 100q-153 0 -289 -51t-200 -101q-38 -30 -38 -44q0 -8 12 -8q11 0 25.5 4t17.5 4q9 0 9 -4t-18 -15 q-16 -9 -26.5 -20.5t-18.5 -16.5q-76 -46 -110 -48q-5 0 -12 1.5t-9 1.5h-4q-25 0 -51.5 20t-26.5 62q0 60 55.5 125t150.5 119.5t236.5 89.5t298.5 35q321 0 501.5 -126.5t180.5 -328.5q0 -126 -56 -252t-150 -232.5t-221 -199t-266.5 -157t-288.5 -101.5t-285 -37 q-71 0 -114.5 7t-56 14.5t-25 22t-19.5 19.5q-19 12 -19 58z" />
<glyph unicode="&#xd1;" horiz-adv-x="1325" d="M-36 -10q0 40 110.5 239t258 432.5t308.5 454.5t249 297q18 16 41 16q9 0 25 -4t22 -4q7 0 33.5 8t39.5 8q28 0 45 -12t17 -29q0 -4 -2 -14q-8 -30 -84 -400t-111 -552q170 231 397 569t265 449q12 35 31 54t34 22.5t37 3.5q40 0 82.5 -13.5t42.5 -44.5q0 -59 -175 -340 t-399.5 -597t-375.5 -500q-27 -33 -68 -33q-36 0 -78 14q-43 13 -43 47q0 110 193 1057q-165 -214 -401.5 -595.5t-270.5 -473.5q-2 -4 -6.5 -17.5t-6 -17.5t-6.5 -14.5t-8 -14l-9 -10.5t-12 -9.5t-15 -4.5t-19 -2q-28 0 -51.5 -4.5t-27.5 -4.5q-23 0 -42.5 13t-19.5 27z M1035 1637q0 60 49 118t107 90t94 32q41 0 75 -18.5t52 -40t41 -40t45 -18.5q47 0 80.5 16t48 34.5t31 34.5t32.5 16q22 0 34 -24.5t12 -54.5q0 -20 -7 -36q-34 -67 -99 -107t-141 -40q-37 0 -68.5 12.5t-52 30t-38 35t-35 30t-35.5 12.5q-27 0 -50.5 -12.5t-41 -30.5 t-34.5 -36.5t-36.5 -31t-40.5 -12.5q-8 0 -15 12t-7 29z" />
<glyph unicode="&#xd2;" horiz-adv-x="1306" d="M170 315q0 166 99.5 369t266.5 379q178 185 392 300.5t407 115.5q38 0 72 -17t34 -45q0 -17 -18 -41q-4 -5 -14 -21.5t-17 -23.5q33 8 70 8q69 0 118.5 -44t49.5 -89q0 -63 -27 -149.5t-75.5 -184t-118 -202t-151 -203t-179 -187t-197.5 -154.5t-211 -105t-215 -39 q-32 0 -69 11.5t-76 38t-70 63.5t-51 94.5t-20 125.5zM364 322q0 -65 29 -111.5t88 -46.5q80 0 178 48t190.5 126t172.5 161t147 169q107 136 180.5 272t73.5 188q0 21 -14 21q-41 0 -116 -52.5t-133 -115.5t-58 -91q0 -2 1.5 -6t1.5 -7q0 -7 -4.5 -13.5t-10.5 -6.5 q-13 0 -57 48.5t-44 81.5q0 77 103.5 175t230.5 149q-140 -8 -325 -119t-326 -270q-137 -154 -222.5 -324t-85.5 -276zM1118 1910q0 20 47.5 46.5t92.5 26.5q10 0 17.5 -2.5t13.5 -10t10 -15.5t9.5 -25t9.5 -32t11.5 -43t14.5 -52q1 -3 18 -53.5t26 -86t9 -57.5 q0 -16 -7.5 -22t-25.5 -6q-24 0 -43.5 8t-32 24.5t-19.5 28.5t-15.5 33t-10.5 25q-27 54 -59.5 102t-49 71.5t-16.5 39.5z" />
<glyph unicode="&#xd3;" horiz-adv-x="1306" d="M170 315q0 166 99.5 369t266.5 379q178 185 392 300.5t407 115.5q38 0 72 -17t34 -45q0 -17 -18 -41q-4 -5 -14 -21.5t-17 -23.5q33 8 70 8q69 0 118.5 -44t49.5 -89q0 -63 -27 -149.5t-75.5 -184t-118 -202t-151 -203t-179 -187t-197.5 -154.5t-211 -105t-215 -39 q-32 0 -69 11.5t-76 38t-70 63.5t-51 94.5t-20 125.5zM364 322q0 -65 29 -111.5t88 -46.5q80 0 178 48t190.5 126t172.5 161t147 169q107 136 180.5 272t73.5 188q0 21 -14 21q-41 0 -116 -52.5t-133 -115.5t-58 -91q0 -2 1.5 -6t1.5 -7q0 -7 -4.5 -13.5t-10.5 -6.5 q-13 0 -57 48.5t-44 81.5q0 77 103.5 175t230.5 149q-140 -8 -325 -119t-326 -270q-137 -154 -222.5 -324t-85.5 -276zM1341 1604q0 9 5 19q22 58 65.5 105.5t118.5 107.5q29 24 68 51.5t54 41.5t21 32q7 18 19 18q28 0 46.5 -34.5t18.5 -65.5q0 -82 -84 -137 q-27 -26 -150 -95t-159 -69q-11 0 -17 8.5t-6 17.5z" />
<glyph unicode="&#xd4;" horiz-adv-x="1306" d="M170 315q0 166 99.5 369t266.5 379q178 185 392 300.5t407 115.5q38 0 72 -17t34 -45q0 -17 -18 -41q-4 -5 -14 -21.5t-17 -23.5q33 8 70 8q69 0 118.5 -44t49.5 -89q0 -63 -27 -149.5t-75.5 -184t-118 -202t-151 -203t-179 -187t-197.5 -154.5t-211 -105t-215 -39 q-32 0 -69 11.5t-76 38t-70 63.5t-51 94.5t-20 125.5zM364 322q0 -65 29 -111.5t88 -46.5q80 0 178 48t190.5 126t172.5 161t147 169q107 136 180.5 272t73.5 188q0 21 -14 21q-41 0 -116 -52.5t-133 -115.5t-58 -91q0 -2 1.5 -6t1.5 -7q0 -7 -4.5 -13.5t-10.5 -6.5 q-13 0 -57 48.5t-44 81.5q0 77 103.5 175t230.5 149q-140 -8 -325 -119t-326 -270q-137 -154 -222.5 -324t-85.5 -276zM1136 1619q0 18 9.5 37.5t33 43t40 38.5t53.5 45t50 41q97 83 146 139q11 21 55 21q42 0 69 -28.5t35 -61t14 -72t9 -47.5q2 -4 11 -27.5t14 -36.5 t12 -34.5t10.5 -38.5t3.5 -31q0 -16 -7.5 -22.5t-25.5 -6.5q-26 0 -47.5 7.5t-37 23.5t-27 32t-21.5 42.5t-16 44t-14.5 48t-12.5 44.5q-64 -64 -175 -145.5t-159 -81.5q-11 0 -16.5 8.5t-5.5 17.5z" />
<glyph unicode="&#xd5;" horiz-adv-x="1306" d="M170 315q0 166 99.5 369t266.5 379q178 185 392 300.5t407 115.5q38 0 72 -17t34 -45q0 -17 -18 -41q-4 -5 -14 -21.5t-17 -23.5q33 8 70 8q69 0 118.5 -44t49.5 -89q0 -63 -27 -149.5t-75.5 -184t-118 -202t-151 -203t-179 -187t-197.5 -154.5t-211 -105t-215 -39 q-32 0 -69 11.5t-76 38t-70 63.5t-51 94.5t-20 125.5zM364 322q0 -65 29 -111.5t88 -46.5q80 0 178 48t190.5 126t172.5 161t147 169q107 136 180.5 272t73.5 188q0 21 -14 21q-41 0 -116 -52.5t-133 -115.5t-58 -91q0 -2 1.5 -6t1.5 -7q0 -7 -4.5 -13.5t-10.5 -6.5 q-13 0 -57 48.5t-44 81.5q0 77 103.5 175t230.5 149q-140 -8 -325 -119t-326 -270q-137 -154 -222.5 -324t-85.5 -276zM1084 1637q0 60 49 118t107 90t94 32q41 0 75 -18.5t52 -40t41 -40t45 -18.5q47 0 80.5 16t48 34.5t31 34.5t32.5 16q22 0 34 -24.5t12 -54.5 q0 -20 -7 -36q-34 -67 -99 -107t-141 -40q-37 0 -68.5 12.5t-52 30t-38 35t-35 30t-35.5 12.5q-27 0 -50.5 -12.5t-41 -30.5t-34.5 -36.5t-36.5 -31t-40.5 -12.5q-8 0 -15 12t-7 29z" />
<glyph unicode="&#xd6;" horiz-adv-x="1306" d="M170 315q0 166 99.5 369t266.5 379q178 185 392 300.5t407 115.5q38 0 72 -17t34 -45q0 -17 -18 -41q-4 -5 -14 -21.5t-17 -23.5q33 8 70 8q69 0 118.5 -44t49.5 -89q0 -63 -27 -149.5t-75.5 -184t-118 -202t-151 -203t-179 -187t-197.5 -154.5t-211 -105t-215 -39 q-32 0 -69 11.5t-76 38t-70 63.5t-51 94.5t-20 125.5zM364 322q0 -65 29 -111.5t88 -46.5q80 0 178 48t190.5 126t172.5 161t147 169q107 136 180.5 272t73.5 188q0 21 -14 21q-41 0 -116 -52.5t-133 -115.5t-58 -91q0 -2 1.5 -6t1.5 -7q0 -7 -4.5 -13.5t-10.5 -6.5 q-13 0 -57 48.5t-44 81.5q0 77 103.5 175t230.5 149q-140 -8 -325 -119t-326 -270q-137 -154 -222.5 -324t-85.5 -276zM1203 1692q0 53 38 110.5t105 57.5q28 0 50 -21t22 -61q0 -57 -47 -113.5t-107 -56.5q-29 0 -45 22.5t-16 61.5zM1502 1688q0 16 11 42t30.5 54.5t54 49 t74.5 20.5q31 0 53.5 -18.5t22.5 -59.5q0 -60 -51.5 -114t-118.5 -54q-37 0 -56.5 22t-19.5 58z" />
<glyph unicode="&#xd7;" horiz-adv-x="850" d="M232 398q0 11 5 21.5t10.5 16t13 12t8.5 8.5q60 64 206 202q-23 25 -83 85.5t-80 82.5q-11 12 -11 31q0 43 53 98q12 13 27 13q23 0 40 -23q6 -9 63.5 -84t85.5 -113q3 3 7 6.5t6.5 6t4.5 3.5q6 5 30.5 28.5t50.5 48t54.5 50t50 41.5t29.5 16q28 0 56 -11q7 -3 23.5 -8.5 t24 -9t15 -11t7.5 -17.5q0 -33 -50 -66q-53 -35 -231 -182q140 -183 158 -208q19 -27 19 -51q0 -29 -21 -67.5t-44 -38.5q-21 0 -37 20q-10 13 -72 111.5t-99 152.5q-33 -31 -71.5 -71.5t-59.5 -64t-57 -65.5l-35 -42q-6 -7 -15 -7q-19 0 -46 26t-32 40q-4 9 -4 20z" />
<glyph unicode="&#xd8;" horiz-adv-x="1306" d="M131 -129q0 71 7 98t36 68q26 37 54 75q-58 85 -58 203q0 166 99.5 369t266.5 379q178 185 392 300.5t407 115.5q27 0 54.5 -9.5t40.5 -25.5q107 111 161 168l7 7t8.5 8t9 6t10.5 3q25 0 25 -84q0 -2 0.5 -11.5t0 -14.5l-1.5 -15t-3.5 -18t-8 -19t-12.5 -22 q-40 -58 -96 -126q44 -18 72 -53.5t28 -66.5q0 -63 -27 -149.5t-75.5 -184t-118 -202t-151 -203t-179 -187t-197.5 -154.5t-211 -105t-215 -39q-43 0 -90 19q-82 -108 -139 -202q-3 -5 -9 -20.5t-13 -22t-19 -6.5q-23 0 -39 41t-16 80zM364 322q0 -22 2 -32q126 155 303 351 t299.5 324t330.5 343q-140 -16 -316 -125t-311 -261q-137 -154 -222.5 -324t-85.5 -276zM494 164q80 4 175.5 53.5t186.5 126.5t169 158.5t144 165.5q107 136 180.5 272t73.5 188q0 36 -6 64q-86 -98 -423 -464t-500 -564z" />
<glyph unicode="&#xd9;" horiz-adv-x="1516" d="M192 152q0 173 221 514q184 286 354 485q-144 -127 -205 -127q-48 0 -75 33.5t-27 81.5q0 37 40 74.5t58 37.5q19 0 19 -4q0 -2 -15 -20.5t-15 -24.5q0 -8 13 -8q39 0 170 79t224 154q25 21 59 21q31 0 61 -16q2 5 17 -2t30 -22t15 -30q0 -11 -8 -22 q-133 -172 -313 -413.5t-253 -352.5q-63 -97 -118.5 -205t-55.5 -160q0 -35 29 -35q30 0 167.5 112t307.5 278q294 286 746 802q27 31 51 29h9q4 0 22.5 3.5t60.5 3.5q100 0 100 -37q0 -16 -22 -46q-37 -50 -130 -182t-231.5 -335t-239 -373t-100.5 -216q0 -1 1 -1 q6 0 34 14.5t75 45t89 66.5q153 129 207 191q7 8 13 8q13 0 20 -29t7 -67q0 -46 -9 -70q-30 -77 -139.5 -172.5t-240 -162t-214.5 -66.5q-40 0 -67.5 31t-27.5 81q0 89 102 272t247 382q-68 -79 -114.5 -131.5t-126.5 -139.5t-140.5 -146t-139.5 -128.5t-142.5 -111.5 t-130.5 -70.5t-120 -28.5q-75 0 -112 48.5t-37 107.5zM1174 1860q0 20 47.5 46.5t92.5 26.5q10 0 17.5 -2.5t13.5 -10t10 -15.5t9.5 -25t9.5 -32t11.5 -43t14.5 -52q1 -3 18 -53.5t26 -86t9 -57.5q0 -16 -7.5 -22t-25.5 -6q-24 0 -43.5 8t-32 24.5t-19.5 28.5t-15.5 33 t-10.5 25q-27 54 -59.5 102t-49 71.5t-16.5 39.5z" />
<glyph unicode="&#xda;" horiz-adv-x="1516" d="M192 152q0 173 221 514q184 286 354 485q-144 -127 -205 -127q-48 0 -75 33.5t-27 81.5q0 37 40 74.5t58 37.5q19 0 19 -4q0 -2 -15 -20.5t-15 -24.5q0 -8 13 -8q39 0 170 79t224 154q25 21 59 21q31 0 61 -16q2 5 17 -2t30 -22t15 -30q0 -11 -8 -22 q-133 -172 -313 -413.5t-253 -352.5q-63 -97 -118.5 -205t-55.5 -160q0 -35 29 -35q30 0 167.5 112t307.5 278q294 286 746 802q27 31 51 29h9q4 0 22.5 3.5t60.5 3.5q100 0 100 -37q0 -16 -22 -46q-37 -50 -130 -182t-231.5 -335t-239 -373t-100.5 -216q0 -1 1 -1 q6 0 34 14.5t75 45t89 66.5q153 129 207 191q7 8 13 8q13 0 20 -29t7 -67q0 -46 -9 -70q-30 -77 -139.5 -172.5t-240 -162t-214.5 -66.5q-40 0 -67.5 31t-27.5 81q0 89 102 272t247 382q-68 -79 -114.5 -131.5t-126.5 -139.5t-140.5 -146t-139.5 -128.5t-142.5 -111.5 t-130.5 -70.5t-120 -28.5q-75 0 -112 48.5t-37 107.5zM1397 1554q0 9 5 19q22 58 65.5 105.5t118.5 107.5q29 24 68 51.5t54 41.5t21 32q7 18 19 18q28 0 46.5 -34.5t18.5 -65.5q0 -82 -84 -137q-27 -26 -150 -95t-159 -69q-11 0 -17 8.5t-6 17.5z" />
<glyph unicode="&#xdb;" horiz-adv-x="1516" d="M192 152q0 173 221 514q184 286 354 485q-144 -127 -205 -127q-48 0 -75 33.5t-27 81.5q0 37 40 74.5t58 37.5q19 0 19 -4q0 -2 -15 -20.5t-15 -24.5q0 -8 13 -8q39 0 170 79t224 154q25 21 59 21q31 0 61 -16q2 5 17 -2t30 -22t15 -30q0 -11 -8 -22 q-133 -172 -313 -413.5t-253 -352.5q-63 -97 -118.5 -205t-55.5 -160q0 -35 29 -35q30 0 167.5 112t307.5 278q294 286 746 802q27 31 51 29h9q4 0 22.5 3.5t60.5 3.5q100 0 100 -37q0 -16 -22 -46q-37 -50 -130 -182t-231.5 -335t-239 -373t-100.5 -216q0 -1 1 -1 q6 0 34 14.5t75 45t89 66.5q153 129 207 191q7 8 13 8q13 0 20 -29t7 -67q0 -46 -9 -70q-30 -77 -139.5 -172.5t-240 -162t-214.5 -66.5q-40 0 -67.5 31t-27.5 81q0 89 102 272t247 382q-68 -79 -114.5 -131.5t-126.5 -139.5t-140.5 -146t-139.5 -128.5t-142.5 -111.5 t-130.5 -70.5t-120 -28.5q-75 0 -112 48.5t-37 107.5zM1192 1569q0 18 9.5 37.5t33 43t40 38.5t53.5 45t50 41q97 83 146 139q11 21 55 21q42 0 69 -28.5t35 -61t14 -72t9 -47.5q2 -4 11 -27.5t14 -36.5t12 -34.5t10.5 -38.5t3.5 -31q0 -16 -7.5 -22.5t-25.5 -6.5 q-26 0 -47.5 7.5t-37 23.5t-27 32t-21.5 42.5t-16 44t-14.5 48t-12.5 44.5q-64 -64 -175 -145.5t-159 -81.5q-11 0 -16.5 8.5t-5.5 17.5z" />
<glyph unicode="&#xdc;" horiz-adv-x="1516" d="M192 152q0 173 221 514q184 286 354 485q-144 -127 -205 -127q-48 0 -75 33.5t-27 81.5q0 37 40 74.5t58 37.5q19 0 19 -4q0 -2 -15 -20.5t-15 -24.5q0 -8 13 -8q39 0 170 79t224 154q25 21 59 21q31 0 61 -16q2 5 17 -2t30 -22t15 -30q0 -11 -8 -22 q-133 -172 -313 -413.5t-253 -352.5q-63 -97 -118.5 -205t-55.5 -160q0 -35 29 -35q30 0 167.5 112t307.5 278q294 286 746 802q27 31 51 29h9q4 0 22.5 3.5t60.5 3.5q100 0 100 -37q0 -16 -22 -46q-37 -50 -130 -182t-231.5 -335t-239 -373t-100.5 -216q0 -1 1 -1 q6 0 34 14.5t75 45t89 66.5q153 129 207 191q7 8 13 8q13 0 20 -29t7 -67q0 -46 -9 -70q-30 -77 -139.5 -172.5t-240 -162t-214.5 -66.5q-40 0 -67.5 31t-27.5 81q0 89 102 272t247 382q-68 -79 -114.5 -131.5t-126.5 -139.5t-140.5 -146t-139.5 -128.5t-142.5 -111.5 t-130.5 -70.5t-120 -28.5q-75 0 -112 48.5t-37 107.5zM1259 1642q0 53 38 110.5t105 57.5q28 0 50 -21t22 -61q0 -57 -47 -113.5t-107 -56.5q-29 0 -45 22.5t-16 61.5zM1558 1638q0 16 11 42t30.5 54.5t54 49t74.5 20.5q31 0 53.5 -18.5t22.5 -59.5q0 -60 -51.5 -114 t-118.5 -54q-37 0 -56.5 22t-19.5 58z" />
<glyph unicode="&#xdd;" horiz-adv-x="1362" d="M171 158q0 77 64 216.5t164.5 298.5t178.5 273t152 213q-134 -121 -219 -121q-22 0 -37 6t-21 11.5t-18 19.5q-31 35 -31 78q0 16 10.5 33t20 26.5t27.5 24.5t20 16q6 5 19 5q16 0 16 -7q0 -2 -10.5 -11t-10.5 -15q0 -4 9 -4q13 0 30 5.5t44.5 20t50 27t67.5 39t76 43.5 q16 9 61.5 42.5t59.5 41.5q29 17 58 19q9 0 18 -3q16 -8 29.5 -11t17.5 -5q17 -9 26 -15.5t20 -21.5t11 -32q0 -28 -26 -64q-31 -42 -130 -187.5t-223.5 -334t-219 -353.5t-94.5 -208q0 -15 11 -15q5 0 55.5 39t141.5 117.5t180 164.5q175 168 362 367t286 312t116 137 q19 26 37.5 35t56.5 9q8 0 27 -0.5t29 -0.5q7 0 20 1t18 1q17 0 38.5 -15t21.5 -26q-5 -22 -236 -401.5t-487 -805t-307 -532.5q37 39 120 110q6 4 9 4q8 0 14 -6.5t6 -14.5q0 -5 -2 -7q-16 -18 -69.5 -87.5t-86.5 -107.5q-19 -21 -39.5 -54.5t-35 -47.5t-35.5 -14 q-61 0 -102.5 52.5t-41.5 88.5q0 70 297.5 546t524.5 799q-83 -98 -170.5 -196.5t-214 -228t-235 -226t-216.5 -164t-176 -67.5q-33 0 -65.5 19t-45.5 46q-16 31 -16 103zM1348 1558q0 9 5 19q22 58 65.5 105.5t118.5 107.5q29 24 68 51.5t54 41.5t21 32q7 18 19 18 q28 0 46.5 -34.5t18.5 -65.5q0 -82 -84 -137q-27 -26 -150 -95t-159 -69q-11 0 -17 8.5t-6 17.5z" />
<glyph unicode="&#xde;" horiz-adv-x="1549" d="M280 774q0 62 63.5 130.5t171.5 127.5t269 102t338 52q163 229 196 266q18 20 41 25.5t74 5.5h49q13 0 13 -29q0 -14 -5 -20q-95 -138 -170 -252q203 -19 321 -100t118 -177q0 -111 -77.5 -225t-194 -198.5t-258.5 -138.5t-267 -54q-100 0 -162 90l-221 -350 q-21 -23 -45 -23q-8 0 -24 -4.5t-25 -4.5q-4 0 -12 1t-12 1h-17q-59 0 -59 37q0 84 624 986q-134 -30 -275 -90t-206 -111q-33 -26 -33 -51q0 -14 11.5 -22.5t31.5 -8.5q23 0 49 11h1q5 0 5 -21q0 -20 -4 -24q-91 -74 -180 -74q-64 0 -96.5 40t-32.5 103zM866 483 q8 -16 26 -20t58 -4h10q92 0 199 44.5t188 106.5t135.5 129.5t54.5 112.5q0 61 -44 103t-110 62t-153 25q-258 -390 -364 -559z" />
<glyph unicode="&#xdf;" horiz-adv-x="846" d="M-307 -510q0 70 99.5 282t235 453.5t246.5 429.5t162 268q36 56 65 99t73.5 100.5t84.5 99.5t92.5 86.5t103.5 73t113 46.5t125 18q88 0 140.5 -57t52.5 -121q0 -60 -31 -123.5t-81 -117t-110 -105t-120 -93.5t-110 -76.5t-81 -60.5t-31 -39q0 -12 13.5 -41t30 -62.5 t30 -91.5t13.5 -121q0 -43 -9.5 -87t-35.5 -93t-65.5 -86t-107.5 -61.5t-154 -24.5q-110 0 -167.5 49t-57.5 103q0 50 43 78.5t91 28.5q10 0 16 -15t10 -32.5t24 -32.5t54 -15q54 0 95.5 16.5t63 42.5t32 52t10.5 52q0 57 -25.5 120t-50.5 117.5t-25 91.5q0 16 4.5 31.5 t10 27.5t19 27t21.5 23.5t29 24.5t30 22.5t35.5 24.5t35.5 25q48 34 105.5 80.5t123.5 105t109.5 114t43.5 88.5q0 23 -15 39t-48 16q-92 0 -189 -88t-292 -353q-60 -84 -351.5 -607.5t-313.5 -617.5q-12 -50 -15.5 -103t-8 -73t-23.5 -24q-34 -5 -71 -7t-67 17t-30 56z" />
<glyph unicode="&#xe0;" horiz-adv-x="834" d="M6 156q0 86 40.5 177.5t106.5 167t144.5 137t159.5 96t147 34.5q54 0 88 -18t43 -45q24 36 40.5 45.5t49.5 9.5q34 0 55 -13t21 -39q0 -28 -14 -42q-12 -12 -54.5 -85.5t-94 -188t-66.5 -195.5q-3 -10 -3 -28q0 -55 32 -55q28 0 69 28.5t73 61t62.5 66.5t32.5 35 q10 9 22 9q10 0 16 -7t8.5 -25t2.5 -25.5v-31.5q0 -31 -6 -43q-29 -57 -127.5 -137t-186.5 -80q-73 0 -111 49t-38 118q0 50 20 95q-83 -108 -190.5 -183t-181.5 -75q-76 0 -118 53t-42 134zM164 156q0 -25 20 -25q28 0 156 110.5t186 182.5q26 33 88 118t78 107 q-30 0 -63.5 -7.5t-79.5 -26t-101 -59t-110 -97.5q-65 -68 -119.5 -163t-54.5 -140zM411 1225q0 20 47.5 46.5t92.5 26.5q10 0 17.5 -2.5t13.5 -10t10 -15.5t9.5 -25t9.5 -32t11.5 -43t14.5 -52q1 -3 18 -53.5t26 -86t9 -57.5q0 -16 -7.5 -22t-25.5 -6q-24 0 -43.5 8 t-32 24.5t-19.5 28.5t-15.5 33t-10.5 25q-27 54 -59.5 102t-49 71.5t-16.5 39.5z" />
<glyph unicode="&#xe1;" horiz-adv-x="834" d="M6 156q0 86 40.5 177.5t106.5 167t144.5 137t159.5 96t147 34.5q54 0 88 -18t43 -45q24 36 40.5 45.5t49.5 9.5q34 0 55 -13t21 -39q0 -28 -14 -42q-12 -12 -54.5 -85.5t-94 -188t-66.5 -195.5q-3 -10 -3 -28q0 -55 32 -55q28 0 69 28.5t73 61t62.5 66.5t32.5 35 q10 9 22 9q10 0 16 -7t8.5 -25t2.5 -25.5v-31.5q0 -31 -6 -43q-29 -57 -127.5 -137t-186.5 -80q-73 0 -111 49t-38 118q0 50 20 95q-83 -108 -190.5 -183t-181.5 -75q-76 0 -118 53t-42 134zM164 156q0 -25 20 -25q28 0 156 110.5t186 182.5q26 33 88 118t78 107 q-30 0 -63.5 -7.5t-79.5 -26t-101 -59t-110 -97.5q-65 -68 -119.5 -163t-54.5 -140zM634 919q0 9 5 19q22 58 65.5 105.5t118.5 107.5q29 24 68 51.5t54 41.5t21 32q7 18 19 18q28 0 46.5 -34.5t18.5 -65.5q0 -82 -84 -137q-27 -26 -150 -95t-159 -69q-11 0 -17 8.5t-6 17.5 z" />
<glyph unicode="&#xe2;" horiz-adv-x="834" d="M6 156q0 86 40.5 177.5t106.5 167t144.5 137t159.5 96t147 34.5q54 0 88 -18t43 -45q24 36 40.5 45.5t49.5 9.5q34 0 55 -13t21 -39q0 -28 -14 -42q-12 -12 -54.5 -85.5t-94 -188t-66.5 -195.5q-3 -10 -3 -28q0 -55 32 -55q28 0 69 28.5t73 61t62.5 66.5t32.5 35 q10 9 22 9q10 0 16 -7t8.5 -25t2.5 -25.5v-31.5q0 -31 -6 -43q-29 -57 -127.5 -137t-186.5 -80q-73 0 -111 49t-38 118q0 50 20 95q-83 -108 -190.5 -183t-181.5 -75q-76 0 -118 53t-42 134zM164 156q0 -25 20 -25q28 0 156 110.5t186 182.5q26 33 88 118t78 107 q-30 0 -63.5 -7.5t-79.5 -26t-101 -59t-110 -97.5q-65 -68 -119.5 -163t-54.5 -140zM429 934q0 18 9.5 37.5t33 43t40 38.5t53.5 45t50 41q97 83 146 139q11 21 55 21q42 0 69 -28.5t35 -61t14 -72t9 -47.5q2 -4 11 -27.5t14 -36.5t12 -34.5t10.5 -38.5t3.5 -31 q0 -16 -7.5 -22.5t-25.5 -6.5q-26 0 -47.5 7.5t-37 23.5t-27 32t-21.5 42.5t-16 44t-14.5 48t-12.5 44.5q-64 -64 -175 -145.5t-159 -81.5q-11 0 -16.5 8.5t-5.5 17.5z" />
<glyph unicode="&#xe3;" horiz-adv-x="834" d="M6 156q0 86 40.5 177.5t106.5 167t144.5 137t159.5 96t147 34.5q54 0 88 -18t43 -45q24 36 40.5 45.5t49.5 9.5q34 0 55 -13t21 -39q0 -28 -14 -42q-12 -12 -54.5 -85.5t-94 -188t-66.5 -195.5q-3 -10 -3 -28q0 -55 32 -55q28 0 69 28.5t73 61t62.5 66.5t32.5 35 q10 9 22 9q10 0 16 -7t8.5 -25t2.5 -25.5v-31.5q0 -31 -6 -43q-29 -57 -127.5 -137t-186.5 -80q-73 0 -111 49t-38 118q0 50 20 95q-83 -108 -190.5 -183t-181.5 -75q-76 0 -118 53t-42 134zM164 156q0 -25 20 -25q28 0 156 110.5t186 182.5q26 33 88 118t78 107 q-30 0 -63.5 -7.5t-79.5 -26t-101 -59t-110 -97.5q-65 -68 -119.5 -163t-54.5 -140zM377 952q0 60 49 118t107 90t94 32q41 0 75 -18.5t52 -40t41 -40t45 -18.5q47 0 80.5 16t48 34.5t31 34.5t32.5 16q22 0 34 -24.5t12 -54.5q0 -20 -7 -36q-34 -67 -99 -107t-141 -40 q-46 0 -83.5 19t-57.5 41t-43.5 41t-44.5 19q-26 0 -50 -12.5t-41.5 -31t-34.5 -36.5t-36.5 -30.5t-40.5 -12.5q-8 0 -15 12t-7 29z" />
<glyph unicode="&#xe4;" horiz-adv-x="834" d="M6 156q0 86 40.5 177.5t106.5 167t144.5 137t159.5 96t147 34.5q54 0 88 -18t43 -45q24 36 40.5 45.5t49.5 9.5q34 0 55 -13t21 -39q0 -28 -14 -42q-12 -12 -54.5 -85.5t-94 -188t-66.5 -195.5q-3 -10 -3 -28q0 -55 32 -55q28 0 69 28.5t73 61t62.5 66.5t32.5 35 q10 9 22 9q10 0 16 -7t8.5 -25t2.5 -25.5v-31.5q0 -31 -6 -43q-29 -57 -127.5 -137t-186.5 -80q-73 0 -111 49t-38 118q0 50 20 95q-83 -108 -190.5 -183t-181.5 -75q-76 0 -118 53t-42 134zM164 156q0 -25 20 -25q28 0 156 110.5t186 182.5q26 33 88 118t78 107 q-30 0 -63.5 -7.5t-79.5 -26t-101 -59t-110 -97.5q-65 -68 -119.5 -163t-54.5 -140zM496 1007q0 53 38 110.5t105 57.5q28 0 50 -21t22 -61q0 -57 -47 -113.5t-107 -56.5q-29 0 -45 22.5t-16 61.5zM795 1003q0 16 11 42t30.5 54.5t54 49t74.5 20.5q31 0 53.5 -18.5 t22.5 -59.5q0 -60 -51.5 -114t-118.5 -54q-37 0 -56.5 22t-19.5 58z" />
<glyph unicode="&#xe5;" horiz-adv-x="834" d="M6 156q0 86 40.5 177.5t106.5 167t144.5 137t159.5 96t147 34.5q54 0 88 -18t43 -45q24 36 40.5 45.5t49.5 9.5q34 0 55 -13t21 -39q0 -28 -14 -42q-12 -12 -54.5 -85.5t-94 -188t-66.5 -195.5q-3 -10 -3 -28q0 -55 32 -55q28 0 69 28.5t73 61t62.5 66.5t32.5 35 q10 9 22 9q10 0 16 -7t8.5 -25t2.5 -25.5v-31.5q0 -31 -6 -43q-29 -57 -127.5 -137t-186.5 -80q-73 0 -111 49t-38 118q0 50 20 95q-83 -108 -190.5 -183t-181.5 -75q-76 0 -118 53t-42 134zM164 156q0 -25 20 -25q28 0 156 110.5t186 182.5q26 33 88 118t78 107 q-30 0 -63.5 -7.5t-79.5 -26t-101 -59t-110 -97.5q-65 -68 -119.5 -163t-54.5 -140zM521 1024q0 188 227 268q0 9 35.5 13.5t67.5 4.5q52 0 84.5 -33.5t32.5 -88.5q0 -52 -41.5 -124t-133.5 -134q-55 -37 -135 -37q-63 0 -100 40.5t-37 90.5zM634 1061q0 -23 19.5 -33.5 t42.5 -10.5q60 0 104.5 43.5t44.5 86.5q0 6 -3 11.5t-9.5 10t-12.5 8.5t-16.5 8.5t-16.5 7t-17.5 6.5t-14.5 5q-21 1 -64 -29q-57 -40 -57 -114z" />
<glyph unicode="&#xe6;" horiz-adv-x="1127" d="M6 156q0 86 40.5 177.5t106.5 167t144.5 137t159.5 96t147 34.5q54 0 88 -18t43 -45q24 36 40.5 45.5t49.5 9.5q35 0 54 -11.5t5 -43.5q62 53 126 78.5t116 25.5q33 0 67 -16t34 -45q0 -66 -53.5 -116t-121.5 -50q-22 0 -29 10.5t-7 34.5q0 10 4 26q-36 -12 -82 -39 q-40 -22 -121.5 -86t-81.5 -88q0 -8 20 -8q27 0 92.5 31t90.5 31q14 0 20 -2q13 -7 28 -30.5t15 -35.5q0 -15 -35 -45q-39 -32 -94 -43q-99 -19 -164.5 -72.5t-65.5 -93.5q0 -74 152 -74q41 0 84.5 13.5t86.5 40.5t73.5 49t73.5 57t59 47q15 10 23 10q26 0 26 -79 q0 -37 -6 -54q-8 -20 -41 -47q-214 -174 -405 -174q-67 0 -120.5 21t-74.5 68q-45 -62 -100 -62q-34 0 -55 13t-21 39q0 7 21 39q-128 -110 -252 -110q-72 0 -116 54.5t-44 132.5zM164 156q0 -25 20 -25q19 0 46 10t72 37t106.5 90.5t127.5 155.5q13 19 69.5 101.5 t86.5 123.5q-30 0 -63.5 -7.5t-79.5 -26t-101 -59t-110 -97.5q-65 -68 -119.5 -163t-54.5 -140z" />
<glyph unicode="&#xe7;" horiz-adv-x="747" d="M35 -393q0 38 17 67t40 29q6 0 8.5 -7.5t6.5 -7.5q67 5 114 15.5t65.5 21.5t18.5 21q0 14 -17.5 23.5t-42 17t-49 18t-42 31t-17.5 50.5q0 23 14 54t36 55q-65 31 -103.5 87t-38.5 129q0 110 55 220.5t141.5 194t201 135.5t226.5 52q34 0 65.5 -13t53 -39.5t21.5 -60.5 q0 -35 -23.5 -83.5t-62.5 -86.5t-76 -38q-64 0 -64 61q0 16 30 57t30 60q0 10 -11 10q-55 0 -127 -45q-54 -31 -105.5 -73t-97 -93.5t-73 -113.5t-27.5 -122q0 -18 3.5 -34t13.5 -32t24.5 -27.5t38.5 -19t55 -7.5q77 0 151.5 17.5t124.5 38.5t99.5 52.5t67.5 46.5t38 33 q4 3 5 4q10 9 20 9q24 0 24 -35q0 -47 -31.5 -92t-81.5 -78.5t-110.5 -61.5t-120.5 -46t-108.5 -28t-77.5 -10q-36 0 -70 6q-18 -24 -18 -39q0 -13 27 -22t60 -16t60 -31t27 -64q0 -27 -11 -57q-36 -98 -118 -142.5t-185 -44.5q-46 0 -60 8t-14 46z" />
<glyph unicode="&#xe8;" horiz-adv-x="650" d="M16 145q0 138 191 209q-38 17 -49 43.5t-11 73.5q0 70 54.5 135.5t133.5 108t164 68.5t150 26q33 0 67 -16t34 -45q0 -66 -53.5 -116t-121.5 -50q-22 0 -29 10.5t-7 34.5q0 10 4 26q-36 -12 -82 -39q-42 -23 -106 -72t-64 -73q0 -8 20 -8q27 0 76 16.5t74 16.5 q14 0 20 -2q13 -7 28 -30.5t15 -35.5q0 -15 -35 -45q-17 -14 -50 -25.5t-44 -17.5q-211 -118 -211 -162q0 -78 133 -78q41 0 84.5 13.5t86.5 40.5t73.5 49t73.5 57t59 47q15 10 23 10q26 0 26 -79q0 -37 -6 -54q-8 -20 -41 -47q-214 -174 -405 -174q-49 0 -94 8.5t-87.5 28 t-68 57.5t-25.5 90zM378 1262q0 20 47.5 46.5t92.5 26.5q10 0 17.5 -2.5t13.5 -10t10 -15.5t9.5 -25t9.5 -32t11.5 -43t14.5 -52q1 -3 18 -53.5t26 -86t9 -57.5q0 -16 -7.5 -22t-25.5 -6q-24 0 -43.5 8t-32 24.5t-19.5 28.5t-15.5 33t-10.5 25q-27 54 -59.5 102t-49 71.5 t-16.5 39.5z" />
<glyph unicode="&#xe9;" horiz-adv-x="650" d="M16 145q0 138 191 209q-38 17 -49 43.5t-11 73.5q0 70 54.5 135.5t133.5 108t164 68.5t150 26q33 0 67 -16t34 -45q0 -66 -53.5 -116t-121.5 -50q-22 0 -29 10.5t-7 34.5q0 10 4 26q-36 -12 -82 -39q-42 -23 -106 -72t-64 -73q0 -8 20 -8q27 0 76 16.5t74 16.5 q14 0 20 -2q13 -7 28 -30.5t15 -35.5q0 -15 -35 -45q-17 -14 -50 -25.5t-44 -17.5q-211 -118 -211 -162q0 -78 133 -78q41 0 84.5 13.5t86.5 40.5t73.5 49t73.5 57t59 47q15 10 23 10q26 0 26 -79q0 -37 -6 -54q-8 -20 -41 -47q-214 -174 -405 -174q-49 0 -94 8.5t-87.5 28 t-68 57.5t-25.5 90zM601 956q0 9 5 19q22 58 65.5 105.5t118.5 107.5q29 24 68 51.5t54 41.5t21 32q7 18 19 18q28 0 46.5 -34.5t18.5 -65.5q0 -82 -84 -137q-27 -26 -150 -95t-159 -69q-11 0 -17 8.5t-6 17.5z" />
<glyph unicode="&#xea;" horiz-adv-x="650" d="M16 145q0 138 191 209q-38 17 -49 43.5t-11 73.5q0 70 54.5 135.5t133.5 108t164 68.5t150 26q33 0 67 -16t34 -45q0 -66 -53.5 -116t-121.5 -50q-22 0 -29 10.5t-7 34.5q0 10 4 26q-36 -12 -82 -39q-42 -23 -106 -72t-64 -73q0 -8 20 -8q27 0 76 16.5t74 16.5 q14 0 20 -2q13 -7 28 -30.5t15 -35.5q0 -15 -35 -45q-17 -14 -50 -25.5t-44 -17.5q-211 -118 -211 -162q0 -78 133 -78q41 0 84.5 13.5t86.5 40.5t73.5 49t73.5 57t59 47q15 10 23 10q26 0 26 -79q0 -37 -6 -54q-8 -20 -41 -47q-214 -174 -405 -174q-49 0 -94 8.5t-87.5 28 t-68 57.5t-25.5 90zM396 971q0 18 9.5 37.5t33 43t40 38.5t53.5 45t50 41q97 83 146 139q11 21 55 21q42 0 69 -28.5t35 -61t14 -72t9 -47.5q2 -4 11 -27.5t14 -36.5t12 -34.5t10.5 -38.5t3.5 -31q0 -16 -7.5 -22.5t-25.5 -6.5q-26 0 -47.5 7.5t-37 23.5t-27 32t-21.5 42.5 t-16 44t-14.5 48t-12.5 44.5q-64 -64 -175 -145.5t-159 -81.5q-11 0 -16.5 8.5t-5.5 17.5z" />
<glyph unicode="&#xeb;" horiz-adv-x="650" d="M16 145q0 138 191 209q-38 17 -49 43.5t-11 73.5q0 70 54.5 135.5t133.5 108t164 68.5t150 26q33 0 67 -16t34 -45q0 -66 -53.5 -116t-121.5 -50q-22 0 -29 10.5t-7 34.5q0 10 4 26q-36 -12 -82 -39q-42 -23 -106 -72t-64 -73q0 -8 20 -8q27 0 76 16.5t74 16.5 q14 0 20 -2q13 -7 28 -30.5t15 -35.5q0 -15 -35 -45q-17 -14 -50 -25.5t-44 -17.5q-211 -118 -211 -162q0 -78 133 -78q41 0 84.5 13.5t86.5 40.5t73.5 49t73.5 57t59 47q15 10 23 10q26 0 26 -79q0 -37 -6 -54q-8 -20 -41 -47q-214 -174 -405 -174q-49 0 -94 8.5t-87.5 28 t-68 57.5t-25.5 90zM463 1044q0 53 38 110.5t105 57.5q28 0 50 -21t22 -61q0 -57 -47 -113.5t-107 -56.5q-29 0 -45 22.5t-16 61.5zM762 1040q0 16 11 42t30.5 54.5t54 49t74.5 20.5q31 0 53.5 -18.5t22.5 -59.5q0 -60 -51.5 -114t-118.5 -54q-37 0 -56.5 22t-19.5 58z" />
<glyph unicode="&#xec;" horiz-adv-x="415" d="M10 131q0 44 55 149t110 194t55 93q0 11 -20.5 33t-20.5 33q0 10 41.5 54.5t101 88t98.5 43.5q24 0 49 -28t25 -52q0 -22 -238 -432q-3 -6 -16.5 -26.5t-21 -34t-17.5 -33t-15 -36t-5 -30.5q0 -34 51 -34q41 0 90.5 31.5t85 69.5t67 69.5t40.5 31.5q26 0 26 -90 q0 -30 -6 -43q-49 -100 -156 -161.5t-197 -61.5q-68 0 -125 53t-57 119zM216 1271q0 20 47.5 46.5t92.5 26.5q10 0 17.5 -2.5t13.5 -10t10 -15.5t9.5 -25t9.5 -32t11.5 -43t14.5 -52q1 -3 18 -53.5t26 -86t9 -57.5q0 -16 -7.5 -22t-25.5 -6q-24 0 -43.5 8t-32 24.5 t-19.5 28.5t-15.5 33t-10.5 25q-27 54 -59.5 102t-49 71.5t-16.5 39.5z" />
<glyph unicode="&#xed;" horiz-adv-x="415" d="M10 131q0 44 55 149t110 194t55 93q0 11 -20.5 33t-20.5 33q0 10 41.5 54.5t101 88t98.5 43.5q24 0 49 -28t25 -52q0 -22 -238 -432q-3 -6 -16.5 -26.5t-21 -34t-17.5 -33t-15 -36t-5 -30.5q0 -34 51 -34q41 0 90.5 31.5t85 69.5t67 69.5t40.5 31.5q26 0 26 -90 q0 -30 -6 -43q-49 -100 -156 -161.5t-197 -61.5q-68 0 -125 53t-57 119zM439 965q0 9 5 19q22 58 65.5 105.5t118.5 107.5q29 24 68 51.5t54 41.5t21 32q7 18 19 18q28 0 46.5 -34.5t18.5 -65.5q0 -82 -84 -137q-27 -26 -150 -95t-159 -69q-11 0 -17 8.5t-6 17.5z" />
<glyph unicode="&#xee;" horiz-adv-x="415" d="M10 131q0 44 55 149t110 194t55 93q0 11 -20.5 33t-20.5 33q0 10 41.5 54.5t101 88t98.5 43.5q24 0 49 -28t25 -52q0 -22 -238 -432q-3 -6 -16.5 -26.5t-21 -34t-17.5 -33t-15 -36t-5 -30.5q0 -34 51 -34q41 0 90.5 31.5t85 69.5t67 69.5t40.5 31.5q26 0 26 -90 q0 -30 -6 -43q-49 -100 -156 -161.5t-197 -61.5q-68 0 -125 53t-57 119zM234 980q0 18 9.5 37.5t33 43t40 38.5t53.5 45t50 41q97 83 146 139q11 21 55 21q42 0 69 -28.5t35 -61t14 -72t9 -47.5q2 -4 11 -27.5t14 -36.5t12 -34.5t10.5 -38.5t3.5 -31q0 -16 -7.5 -22.5 t-25.5 -6.5q-26 0 -47.5 7.5t-37 23.5t-27 32t-21.5 42.5t-16 44t-14.5 48t-12.5 44.5q-64 -64 -175 -145.5t-159 -81.5q-11 0 -16.5 8.5t-5.5 17.5z" />
<glyph unicode="&#xef;" horiz-adv-x="415" d="M10 131q0 44 55 149t110 194t55 93q0 11 -20.5 33t-20.5 33q0 10 41.5 54.5t101 88t98.5 43.5q24 0 49 -28t25 -52q0 -22 -238 -432q-3 -6 -16.5 -26.5t-21 -34t-17.5 -33t-15 -36t-5 -30.5q0 -34 51 -34q41 0 90.5 31.5t85 69.5t67 69.5t40.5 31.5q26 0 26 -90 q0 -30 -6 -43q-49 -100 -156 -161.5t-197 -61.5q-68 0 -125 53t-57 119zM301 1053q0 53 38 110.5t105 57.5q28 0 50 -21t22 -61q0 -57 -47 -113.5t-107 -56.5q-29 0 -45 22.5t-16 61.5zM600 1049q0 16 11 42t30.5 54.5t54 49t74.5 20.5q31 0 53.5 -18.5t22.5 -59.5 q0 -60 -51.5 -114t-118.5 -54q-37 0 -56.5 22t-19.5 58z" />
<glyph unicode="&#xf0;" horiz-adv-x="779" d="M14 139q0 72 28.5 150.5t77 149.5t114.5 135.5t138.5 111.5t152 75t151.5 28q50 0 73 -16q25 115 25 288v4.5v3.5v4q-5 -2 -16 -5q-22 -8 -34 -12t-34.5 -10.5t-36 -9t-32.5 -5t-31.5 -0.5t-25.5 5.5t-21.5 13t-13.5 22.5q-1 5 -1 14t9.5 21.5t26.5 18.5q56 21 89 29.5 t99 32.5q-7 22 -21 59.5t-22.5 61t-17.5 56t-9 54.5t5 45t22.5 39.5t45.5 27.5q19 7 45 -29t51.5 -102.5t43.5 -145.5q3 2 24 12.5t38 18.5t42.5 19t46.5 16t42 6.5t35.5 -6t20.5 -24.5q15 -37 -78 -88q-87 -47 -151 -75q6 -66 6 -98q0 -156 -38.5 -313t-109.5 -290 t-162 -237t-204 -163t-229 -59q-71 0 -117.5 48.5t-46.5 117.5zM165 177q-1 -26 10 -41t31 -15q48 0 103 26.5t117 81t130 149t131 218.5q16 34 23 51q-19 -6 -44 -5q-47 1 -104.5 -23t-111.5 -64t-106.5 -91.5t-91 -103t-63 -100.5t-24.5 -83z" />
<glyph unicode="&#xf1;" horiz-adv-x="800" d="M-66 49q0 12 7 29.5t13.5 29t21.5 35.5t18 29q86 150 262 444l26 45.5t32 54t30 42.5q45 57 152 57q24 0 24 -39q0 -21 -22.5 -63t-64.5 -105l-42 -63q47 52 84.5 88.5t93.5 83t114 71.5t112 25q39 0 66.5 -25t27.5 -65q0 -21 -21 -63.5t-42.5 -76t-56.5 -84.5t-40 -59 q-1 -1 -13.5 -20.5t-18.5 -28.5t-20 -31.5t-22.5 -37.5t-21 -37t-20 -38t-15 -34.5t-11 -33t-3.5 -25.5q0 -22 17.5 -33t42.5 -11q32 0 80.5 32t87.5 70.5t74 70.5t44 32q26 0 26 -90q0 -60 -47 -88q-39 -35 -64.5 -56.5t-69.5 -53t-87.5 -47t-85.5 -15.5q-64 2 -116 47 t-52 115q0 59 34 141t69.5 140.5t89.5 138.5q50 75 53 94l-2 2q-33 -3 -163.5 -130t-209.5 -214q-91 -101 -209 -258q-33 -43 -63 -43q-12 0 -47.5 13.5t-44.5 21.5q-7 4 -7 16zM377 990q0 60 49 118t107 90t94 32q41 0 75 -18.5t52 -40t41 -40t45 -18.5q47 0 80.5 16 t48 34.5t31 34.5t32.5 16q22 0 34 -24.5t12 -54.5q0 -20 -7 -36q-34 -67 -99 -107t-141 -40q-46 0 -83.5 19t-57.5 41t-43.5 41t-44.5 19q-27 0 -50.5 -12.5t-41 -31t-34.5 -36.5t-36.5 -30.5t-40.5 -12.5q-8 0 -15 12t-7 29z" />
<glyph unicode="&#xf2;" d="M21 139q0 104 42.5 209t109.5 185.5t145.5 144t154 97.5t131.5 34q28 0 50.5 -8.5t32.5 -18t10 -16.5v-6q14 2 34 2q40 0 71.5 -27t31.5 -78q0 -60 -39 -148.5t-107 -180t-149.5 -172t-176 -132t-177.5 -51.5q-71 0 -117.5 48.5t-46.5 117.5zM172 177q0 -56 41 -56 t122 54t163 157q77 97 116.5 170.5t39.5 106.5q0 20 -14 20h-7q-35 0 -35 51q-73 -24 -153 -84t-146 -145q-61 -79 -93.5 -152.5t-33.5 -121.5zM407 1260q0 20 47.5 46.5t92.5 26.5q10 0 17.5 -2.5t13.5 -10t10 -15.5t9.5 -25t9.5 -32t11.5 -43t14.5 -52q1 -3 18 -53.5 t26 -86t9 -57.5q0 -16 -7.5 -22t-25.5 -6q-24 0 -43.5 8t-32 24.5t-19.5 28.5t-15.5 33t-10.5 25q-27 54 -59.5 102t-49 71.5t-16.5 39.5z" />
<glyph unicode="&#xf3;" d="M21 139q0 104 42.5 209t109.5 185.5t145.5 144t154 97.5t131.5 34q28 0 50.5 -8.5t32.5 -18t10 -16.5v-6q14 2 34 2q40 0 71.5 -27t31.5 -78q0 -60 -39 -148.5t-107 -180t-149.5 -172t-176 -132t-177.5 -51.5q-71 0 -117.5 48.5t-46.5 117.5zM172 177q0 -56 41 -56 t122 54t163 157q77 97 116.5 170.5t39.5 106.5q0 20 -14 20h-7q-35 0 -35 51q-73 -24 -153 -84t-146 -145q-61 -79 -93.5 -152.5t-33.5 -121.5zM630 954q0 9 5 19q22 58 65.5 105.5t118.5 107.5q29 24 68 51.5t54 41.5t21 32q7 18 19 18q28 0 46.5 -34.5t18.5 -65.5 q0 -82 -84 -137q-27 -26 -150 -95t-159 -69q-11 0 -17 8.5t-6 17.5z" />
<glyph unicode="&#xf4;" d="M21 139q0 104 42.5 209t109.5 185.5t145.5 144t154 97.5t131.5 34q28 0 50.5 -8.5t32.5 -18t10 -16.5v-6q14 2 34 2q40 0 71.5 -27t31.5 -78q0 -60 -39 -148.5t-107 -180t-149.5 -172t-176 -132t-177.5 -51.5q-71 0 -117.5 48.5t-46.5 117.5zM172 177q0 -56 41 -56 t122 54t163 157q77 97 116.5 170.5t39.5 106.5q0 20 -14 20h-7q-35 0 -35 51q-73 -24 -153 -84t-146 -145q-61 -79 -93.5 -152.5t-33.5 -121.5zM425 969q0 18 9.5 37.5t33 43t40 38.5t53.5 45t50 41q97 83 146 139q11 21 55 21q42 0 69 -28.5t35 -61t14 -72t9 -47.5 q2 -4 11 -27.5t14 -36.5t12 -34.5t10.5 -38.5t3.5 -31q0 -16 -7.5 -22.5t-25.5 -6.5q-26 0 -47.5 7.5t-37 23.5t-27 32t-21.5 42.5t-16 44t-14.5 48t-12.5 44.5q-64 -64 -175 -145.5t-159 -81.5q-11 0 -16.5 8.5t-5.5 17.5z" />
<glyph unicode="&#xf5;" d="M21 139q0 104 42.5 209t109.5 185.5t145.5 144t154 97.5t131.5 34q28 0 50.5 -8.5t32.5 -18t10 -16.5v-6q14 2 34 2q40 0 71.5 -27t31.5 -78q0 -60 -39 -148.5t-107 -180t-149.5 -172t-176 -132t-177.5 -51.5q-71 0 -117.5 48.5t-46.5 117.5zM172 177q0 -56 41 -56 t122 54t163 157q77 97 116.5 170.5t39.5 106.5q0 20 -14 20h-7q-35 0 -35 51q-73 -24 -153 -84t-146 -145q-61 -79 -93.5 -152.5t-33.5 -121.5zM373 987q0 60 49 118t107 90t94 32q41 0 75 -18.5t52 -40t41 -40t45 -18.5q47 0 80.5 16t48 34.5t31 34.5t32.5 16 q22 0 34 -24.5t12 -54.5q0 -20 -7 -36q-34 -67 -99 -107t-141 -40q-37 0 -68.5 12.5t-52 30t-38 35t-35 30t-35.5 12.5q-27 0 -50.5 -12.5t-41 -31t-34.5 -36.5t-36.5 -30.5t-40.5 -12.5q-8 0 -15 12t-7 29z" />
<glyph unicode="&#xf6;" d="M21 139q0 104 42.5 209t109.5 185.5t145.5 144t154 97.5t131.5 34q28 0 50.5 -8.5t32.5 -18t10 -16.5v-6q14 2 34 2q40 0 71.5 -27t31.5 -78q0 -60 -39 -148.5t-107 -180t-149.5 -172t-176 -132t-177.5 -51.5q-71 0 -117.5 48.5t-46.5 117.5zM172 177q0 -56 41 -56 t122 54t163 157q77 97 116.5 170.5t39.5 106.5q0 20 -14 20h-7q-35 0 -35 51q-73 -24 -153 -84t-146 -145q-61 -79 -93.5 -152.5t-33.5 -121.5zM492 1042q0 53 38 110.5t105 57.5q28 0 50 -21t22 -61q0 -57 -47 -113.5t-107 -56.5q-29 0 -45 22.5t-16 61.5zM791 1038 q0 16 11 42t30.5 54.5t54 49t74.5 20.5q31 0 53.5 -18.5t22.5 -59.5q0 -60 -51.5 -114t-118.5 -54q-37 0 -56.5 22t-19.5 58z" />
<glyph unicode="&#xf7;" horiz-adv-x="850" d="M218 599q0 5 3 11q11 20 23 53t23 44.5t34 11.5q99 0 187.5 -5t89.5 -5q88 -3 187.5 -5.5t125.5 -3.5q55 -1 55 -20q0 -10 -20 -45q-4 -7 -11.5 -20.5t-11 -20t-11.5 -16t-16 -14t-20.5 -8t-28.5 -3.5q-45 0 -150.5 6t-170.5 6q-44 0 -134.5 -2t-103.5 -2q-21 0 -35.5 12 t-14.5 26zM383 317q0 66 41.5 120.5t97.5 54.5q70 0 70 -91q0 -65 -43.5 -113t-99.5 -48q-31 0 -48.5 20t-17.5 57zM567 850q0 66 42 120t98 54q31 0 50 -22t19 -68q0 -65 -43.5 -113.5t-99.5 -48.5q-31 0 -48.5 20.5t-17.5 57.5z" />
<glyph unicode="&#xf8;" d="M-64 -180q0 52 4.5 71t25.5 46q28 36 84 106q-29 41 -29 96q0 104 42.5 209t109.5 185.5t145.5 144t154 97.5t131.5 34q59 0 86 -31q121 131 264 280q17 17 24 17q18 0 18 -59q0 -16 -33 -63q-55 -80 -176 -207q47 -28 47 -89q0 -60 -39 -148.5t-107 -180t-149.5 -172 t-176 -132t-177.5 -51.5q-30 0 -63 12q-71 -104 -127 -201q-2 -3 -6 -14t-8.5 -15.5t-13.5 -4.5q-31 0 -31 70zM173 193q194 234 425 486v1q-73 -24 -153 -84t-146 -145q-113 -146 -126 -258zM222 121q45 6 121.5 60t154.5 151q77 97 116.5 170.5t39.5 106.5 q-274 -280 -432 -488z" />
<glyph unicode="&#xf9;" horiz-adv-x="810" d="M0 90q0 34 12 79.5t25.5 81.5t40 89t39.5 77t41.5 72.5t28.5 49.5q93 163 117 195q37 47 71 48q24 0 46 -24t22 -41q0 -13 -66.5 -133t-132.5 -249.5t-66 -167.5q0 -15 11 -15q48 0 239 208t224 271q27 54 55.5 94t42.5 49t47 19t64 11q11 0 16 -1q7 -1 15 -17t8 -25 l-1 -3q-49 -95 -99 -181t-58 -102q-118 -244 -118 -318q0 -42 32 -42q29 4 69.5 33t70.5 60t59.5 63t31.5 34q12 9 22 9t16 -7t8.5 -25t2.5 -25.5v-31.5q0 -31 -6 -43q-29 -56 -127 -136.5t-186 -80.5q-54 0 -100 32.5t-46 96.5q0 98 43 176q-248 -311 -389 -311 q-56 0 -90.5 40t-34.5 91zM376 1247q0 20 47.5 46.5t92.5 26.5q10 0 17.5 -2.5t13.5 -10t10 -15.5t9.5 -25t9.5 -32t11.5 -43t14.5 -52q1 -3 18 -53.5t26 -86t9 -57.5q0 -16 -7.5 -22t-25.5 -6q-24 0 -43.5 8t-32 24.5t-19.5 28.5t-15.5 33t-10.5 25q-27 54 -59.5 102 t-49 71.5t-16.5 39.5z" />
<glyph unicode="&#xfa;" horiz-adv-x="810" d="M0 90q0 34 12 79.5t25.5 81.5t40 89t39.5 77t41.5 72.5t28.5 49.5q93 163 117 195q37 47 71 48q24 0 46 -24t22 -41q0 -13 -66.5 -133t-132.5 -249.5t-66 -167.5q0 -15 11 -15q48 0 239 208t224 271q27 54 55.5 94t42.5 49t47 19t64 11q11 0 16 -1q7 -1 15 -17t8 -25 l-1 -3q-49 -95 -99 -181t-58 -102q-118 -244 -118 -318q0 -42 32 -42q29 4 69.5 33t70.5 60t59.5 63t31.5 34q12 9 22 9t16 -7t8.5 -25t2.5 -25.5v-31.5q0 -31 -6 -43q-29 -56 -127 -136.5t-186 -80.5q-54 0 -100 32.5t-46 96.5q0 98 43 176q-248 -311 -389 -311 q-56 0 -90.5 40t-34.5 91zM599 941q0 9 5 19q22 58 65.5 105.5t118.5 107.5q29 24 68 51.5t54 41.5t21 32q7 18 19 18q28 0 46.5 -34.5t18.5 -65.5q0 -82 -84 -137q-27 -26 -150 -95t-159 -69q-11 0 -17 8.5t-6 17.5z" />
<glyph unicode="&#xfb;" horiz-adv-x="810" d="M0 90q0 34 12 79.5t25.5 81.5t40 89t39.5 77t41.5 72.5t28.5 49.5q93 163 117 195q37 47 71 48q24 0 46 -24t22 -41q0 -13 -66.5 -133t-132.5 -249.5t-66 -167.5q0 -15 11 -15q48 0 239 208t224 271q27 54 55.5 94t42.5 49t47 19t64 11q11 0 16 -1q7 -1 15 -17t8 -25 l-1 -3q-49 -95 -99 -181t-58 -102q-118 -244 -118 -318q0 -42 32 -42q29 4 69.5 33t70.5 60t59.5 63t31.5 34q12 9 22 9t16 -7t8.5 -25t2.5 -25.5v-31.5q0 -31 -6 -43q-29 -56 -127 -136.5t-186 -80.5q-54 0 -100 32.5t-46 96.5q0 98 43 176q-248 -311 -389 -311 q-56 0 -90.5 40t-34.5 91zM394 956q0 18 9.5 37.5t33 43t40 38.5t53.5 45t50 41q97 83 146 139q11 21 55 21q42 0 69 -28.5t35 -61t14 -72t9 -47.5q2 -4 11 -27.5t14 -36.5t12 -34.5t10.5 -38.5t3.5 -31q0 -16 -7.5 -22.5t-25.5 -6.5q-26 0 -47.5 7.5t-37 23.5t-27 32 t-21.5 42.5t-16 44t-14.5 48t-12.5 44.5q-64 -64 -175 -145.5t-159 -81.5q-11 0 -16.5 8.5t-5.5 17.5z" />
<glyph unicode="&#xfc;" horiz-adv-x="810" d="M0 90q0 34 12 79.5t25.5 81.5t40 89t39.5 77t41.5 72.5t28.5 49.5q93 163 117 195q37 47 71 48q24 0 46 -24t22 -41q0 -13 -66.5 -133t-132.5 -249.5t-66 -167.5q0 -15 11 -15q48 0 239 208t224 271q27 54 55.5 94t42.5 49t47 19t64 11q11 0 16 -1q7 -1 15 -17t8 -25 l-1 -3q-49 -95 -99 -181t-58 -102q-118 -244 -118 -318q0 -42 32 -42q29 4 69.5 33t70.5 60t59.5 63t31.5 34q12 9 22 9t16 -7t8.5 -25t2.5 -25.5v-31.5q0 -31 -6 -43q-29 -56 -127 -136.5t-186 -80.5q-54 0 -100 32.5t-46 96.5q0 98 43 176q-248 -311 -389 -311 q-56 0 -90.5 40t-34.5 91zM461 1029q0 53 38 110.5t105 57.5q28 0 50 -21t22 -61q0 -57 -47 -113.5t-107 -56.5q-29 0 -45 22.5t-16 61.5zM760 1025q0 16 11 42t30.5 54.5t54 49t74.5 20.5q31 0 53.5 -18.5t22.5 -59.5q0 -60 -51.5 -114t-118.5 -54q-37 0 -56.5 22t-19.5 58 z" />
<glyph unicode="&#xfd;" horiz-adv-x="799" d="M-7 78q0 10 1 14q4 53 18.5 96.5t32 74t62 104.5t82.5 143q36 55 74 128t58 104.5t37 31.5q19 0 47.5 -22.5t28.5 -53.5t-131 -269t-131 -271q0 -8 8 -8q27 0 119.5 76.5t205 196.5t181.5 222q5 7 14 21t14.5 21.5t14 20t14 19.5t13 16.5t13.5 14.5t12.5 10.5t13 7.5 t12.5 2q13 0 40.5 -6t35.5 -16q3 -4 9 -10.5t8 -11t2 -9.5q0 -9 -13 -35q-3 -5 -88 -148.5t-188 -325t-156 -290.5q152 128 428 379q11 9 22 9q31 0 31 -95q0 -28 -10 -37q-160 -123 -289 -240.5t-274 -273.5q-5 -5 -30.5 -50.5t-54.5 -92t-71.5 -88.5t-79.5 -47 q-20 -2 -28 -2q-92 0 -92 93q0 67 43.5 147t93 135.5t101 107t54.5 55.5q6 9 150 281q-96 -105 -178 -170.5t-158 -73.5h-7q-39 0 -79 27q-36 24 -36 88zM578 922q0 9 5 19q22 58 65.5 105.5t118.5 107.5q29 24 68 51.5t54 41.5t21 32q7 18 19 18q28 0 46.5 -34.5 t18.5 -65.5q0 -82 -84 -137q-27 -26 -150 -95t-159 -69q-11 0 -17 8.5t-6 17.5z" />
<glyph unicode="&#xfe;" horiz-adv-x="801" d="M-399 -532q0 55 24 96q143 239 633 1030.5t522 812.5q18 12 36 12q4 0 10 -0.5t9 -0.5q2 0 8.5 1t9.5 1q15 0 25 -29q8 -24 8 -27q0 -14 -20 -39l-502 -788q10 10 28 26.5t69.5 58.5t99.5 74.5t108 59t105 26.5q52 0 81.5 -31.5t29.5 -82.5q0 -43 -26 -112t-70.5 -147 t-108 -157t-133 -143t-151.5 -104t-159 -40q-48 0 -79 29.5t-31 85.5q-85 -130 -190 -297t-169 -269.5t-71 -111.5q-15 -19 -24 -19q-6 0 -21.5 9t-32.5 30t-18 46zM180 156q26 -32 70 -32q58 0 139 55t150 130.5t118 158.5t49 136q0 21 -20 21q-54 0 -228.5 -166 t-277.5 -303z" />
<glyph unicode="&#xff;" horiz-adv-x="799" d="M-7 78q0 10 1 14q4 53 18.5 96.5t32 74t62 104.5t82.5 143q36 55 74 128t58 104.5t37 31.5q19 0 47.5 -22.5t28.5 -53.5t-131 -269t-131 -271q0 -8 8 -8q27 0 119.5 76.5t205 196.5t181.5 222q5 7 14 21t14.5 21.5t14 20t14 19.5t13 16.5t13.5 14.5t12.5 10.5t13 7.5 t12.5 2q13 0 40.5 -6t35.5 -16q3 -4 9 -10.5t8 -11t2 -9.5q0 -9 -13 -35q-3 -5 -88 -148.5t-188 -325t-156 -290.5q152 128 428 379q11 9 22 9q31 0 31 -95q0 -28 -10 -37q-160 -123 -289 -240.5t-274 -273.5q-5 -5 -30.5 -50.5t-54.5 -92t-71.5 -88.5t-79.5 -47 q-20 -2 -28 -2q-92 0 -92 93q0 67 43.5 147t93 135.5t101 107t54.5 55.5q6 9 150 281q-96 -105 -178 -170.5t-158 -73.5h-7q-39 0 -79 27q-36 24 -36 88zM440 1010q0 53 38 110.5t105 57.5q28 0 50 -21t22 -61q0 -57 -47 -113.5t-107 -56.5q-29 0 -45 22.5t-16 61.5z M739 1006q0 16 11 42t30.5 54.5t54 49t74.5 20.5q31 0 53.5 -18.5t22.5 -59.5q0 -60 -51.5 -114t-118.5 -54q-37 0 -56.5 22t-19.5 58z" />
<glyph unicode="&#x152;" horiz-adv-x="2206" d="M170 315q0 166 99.5 369t266.5 379q183 190 381 303t388 113q38 0 72 -17t34 -45q0 -17 -18 -41q-5 -6 -10 -15.5t-10 -17t-11 -12.5q33 8 70 8q45 0 83 -20.5t61 -51.5q126 85 290.5 137t297.5 52q44 0 97.5 -7t69.5 -12q37 -18 60 -50.5t23 -51.5q0 -27 -5 -45 t-17.5 -28.5t-21.5 -15.5t-28.5 -11t-27.5 -10q-78 -33 -164 -33q-17 0 -34 3.5t-29.5 9.5t-15.5 13q2 26 22 60q-95 -4 -197 -38.5t-176.5 -81t-122.5 -96.5t-48 -84q0 -20 23 -33.5t61 -20t72 -9t71 -2.5q56 0 83 12q35 17 89 25.5t99 8.5q44 0 67 -14t23 -39 q0 -21 -17.5 -61.5t-27.5 -51.5q-5 -4 -32 -13t-61.5 -17.5t-56.5 -10.5q-3 0 -15 -2t-21.5 -3.5t-21.5 -3t-21 -1.5t-13 2q-124 -61 -219.5 -128t-148.5 -121.5t-87 -108t-45 -88.5t-11 -63q0 -99 137 -99q107 0 272 84t292.5 203.5t127.5 207.5q0 11 10.5 18t20 8.5 t17.5 1.5q36 0 63.5 -25.5t27.5 -89.5q0 -54 -47 -128.5t-131 -151t-187 -142.5t-228.5 -108t-241.5 -42q-58 0 -111.5 16.5t-100 49t-74.5 88.5t-28 127q0 78 42 158.5t109.5 147t134 116.5t134.5 89q-73 16 -118 46q-82 -148 -193 -289.5t-242.5 -264.5t-281.5 -198.5 t-287 -75.5q-32 0 -69 11.5t-76 38t-70 63.5t-51 94.5t-20 125.5zM364 322q0 -41 11 -75.5t38.5 -58.5t67.5 -24q65 0 140.5 33t144.5 83.5t142 120t129.5 133.5t111.5 134q104 133 174 269.5t70 190.5q0 21 -14 21q-41 0 -116 -52.5t-133 -115.5t-58 -91q0 -2 1.5 -6 t1.5 -7q0 -7 -4.5 -13.5t-10.5 -6.5q-4 0 -20.5 13.5t-34.5 32.5t-32 42.5t-14 41.5q0 51 49.5 115t126 120t158.5 89q-138 -8 -312.5 -117.5t-318.5 -271.5q-135 -151 -216.5 -321t-81.5 -279z" />
<glyph unicode="&#x153;" horiz-adv-x="1137" d="M21 139q0 104 42.5 209t109.5 185.5t145.5 144t154 97.5t131.5 34q28 0 50.5 -8.5t32.5 -18t10 -16.5v-6q14 2 34 2q28 0 39 -16.5t13 -55.5q80 54 179.5 86.5t173.5 32.5q33 0 67 -16t34 -45q0 -66 -53.5 -116t-121.5 -50q-22 0 -29 10.5t-7 34.5q0 10 4 26 q-36 -12 -82 -39q-42 -23 -106 -72t-64 -73q0 -8 20 -8q27 0 76 16.5t74 16.5q14 0 20 -2q13 -7 28 -30.5t15 -35.5q0 -15 -35 -45q-17 -14 -50 -25.5t-44 -17.5q-211 -118 -211 -162q0 -78 133 -78q41 0 84.5 13.5t86.5 40.5t73.5 49t73.5 57t59 47q15 10 23 10 q26 0 26 -79q0 -37 -6 -54q-8 -20 -41 -47q-214 -174 -405 -174q-48 0 -92 8.5t-86.5 27t-68.5 55t-28 86.5q-167 -165 -318 -165q-71 0 -117.5 48.5t-46.5 117.5zM172 177q0 -56 41 -56t122 54t163 157q77 97 116.5 170.5t39.5 106.5q0 20 -14 20h-7q-35 0 -35 51 q-73 -24 -153 -84t-146 -145q-61 -79 -93.5 -152.5t-33.5 -121.5zM664 341q46 27 90 43q-42 11 -56 16q-10 -19 -34 -59z" />
<glyph unicode="&#x178;" horiz-adv-x="1362" d="M171 158q0 77 64 216.5t164.5 298.5t178.5 273t152 213q-134 -121 -219 -121q-22 0 -37 6t-21 11.5t-18 19.5q-31 35 -31 78q0 16 10.5 33t20 26.5t27.5 24.5t20 16q6 5 19 5q16 0 16 -7q0 -2 -10.5 -11t-10.5 -15q0 -4 9 -4q13 0 30 5.5t44.5 20t50 27t67.5 39t76 43.5 q16 9 61.5 42.5t59.5 41.5q29 17 58 19q9 0 18 -3q16 -8 29.5 -11t17.5 -5q17 -9 26 -15.5t20 -21.5t11 -32q0 -28 -26 -64q-31 -42 -130 -187.5t-223.5 -334t-219 -353.5t-94.5 -208q0 -15 11 -15q5 0 55.5 39t141.5 117.5t180 164.5q175 168 362 367t286 312t116 137 q19 26 37.5 35t56.5 9q8 0 27 -0.5t29 -0.5q7 0 20 1t18 1q17 0 38.5 -15t21.5 -26q-5 -22 -236 -401.5t-487 -805t-307 -532.5q37 39 120 110q6 4 9 4q8 0 14 -6.5t6 -14.5q0 -5 -2 -7q-16 -18 -69.5 -87.5t-86.5 -107.5q-19 -21 -39.5 -54.5t-35 -47.5t-35.5 -14 q-61 0 -102.5 52.5t-41.5 88.5q0 70 297.5 546t524.5 799q-83 -98 -170.5 -196.5t-214 -228t-235 -226t-216.5 -164t-176 -67.5q-33 0 -65.5 19t-45.5 46q-16 31 -16 103zM1210 1646q0 53 38 110.5t105 57.5q28 0 50 -21t22 -61q0 -57 -47 -113.5t-107 -56.5q-29 0 -45 22.5 t-16 61.5zM1509 1642q0 16 11 42t30.5 54.5t54 49t74.5 20.5q31 0 53.5 -18.5t22.5 -59.5q0 -60 -51.5 -114t-118.5 -54q-37 0 -56.5 22t-19.5 58z" />
<glyph unicode="&#x2c6;" horiz-adv-x="819" d="M449 930q0 18 9.5 37.5t33 43t40 38.5t53.5 45t50 41q97 83 146 139q11 21 55 21q42 0 69 -28.5t35 -61t14 -72t9 -47.5q2 -4 11 -27.5t14 -36.5t12 -34.5t10.5 -38.5t3.5 -31q0 -16 -7.5 -22.5t-25.5 -6.5q-26 0 -47.5 7.5t-37 23.5t-27 32t-21.5 42.5t-16 44t-14.5 48 t-12.5 44.5q-64 -64 -175 -145.5t-159 -81.5q-11 0 -16.5 8.5t-5.5 17.5z" />
<glyph unicode="&#x2dc;" horiz-adv-x="819" d="M448 948q0 60 49 118t107 90t94 32q41 0 75 -18.5t52 -40t41 -40t45 -18.5q47 0 80.5 16t48 34.5t31 34.5t32.5 16q22 0 34 -24.5t12 -54.5q0 -20 -7 -36q-34 -67 -99 -107t-141 -40q-46 0 -83.5 19t-57.5 41t-43.5 41t-44.5 19q-27 0 -50.5 -12.5t-41 -31t-34.5 -36.5 t-36.5 -30.5t-40.5 -12.5q-8 0 -15 12t-7 29z" />
<glyph unicode="&#x2000;" horiz-adv-x="995" />
<glyph unicode="&#x2001;" horiz-adv-x="1990" />
<glyph unicode="&#x2002;" horiz-adv-x="995" />
<glyph unicode="&#x2003;" horiz-adv-x="1990" />
<glyph unicode="&#x2004;" horiz-adv-x="663" />
<glyph unicode="&#x2005;" horiz-adv-x="497" />
<glyph unicode="&#x2006;" horiz-adv-x="331" />
<glyph unicode="&#x2007;" horiz-adv-x="331" />
<glyph unicode="&#x2008;" horiz-adv-x="248" />
<glyph unicode="&#x2009;" horiz-adv-x="398" />
<glyph unicode="&#x200a;" horiz-adv-x="110" />
<glyph unicode="&#x2010;" horiz-adv-x="650" d="M150 451q0 10 10.5 25t12.5 24q5 23 37.5 53t49.5 32q28 3 85 7t85 7q86 6 146 6q46 0 53 -4q10 -7 20.5 -28.5t16.5 -28.5q12 -13 12 -30q0 -28 -18 -44.5t-38 -18.5q-25 -5 -53 -8.5t-62.5 -7t-53.5 -5.5q-43 -6 -83 -14t-72 -12t-84 -5h-5q-20 -2 -39.5 11t-19.5 41z " />
<glyph unicode="&#x2011;" horiz-adv-x="650" d="M150 451q0 10 10.5 25t12.5 24q5 23 37.5 53t49.5 32q28 3 85 7t85 7q86 6 146 6q46 0 53 -4q10 -7 20.5 -28.5t16.5 -28.5q12 -13 12 -30q0 -28 -18 -44.5t-38 -18.5q-25 -5 -53 -8.5t-62.5 -7t-53.5 -5.5q-43 -6 -83 -14t-72 -12t-84 -5h-5q-20 -2 -39.5 11t-19.5 41z " />
<glyph unicode="&#x2012;" horiz-adv-x="650" d="M150 451q0 10 10.5 25t12.5 24q5 23 37.5 53t49.5 32q28 3 85 7t85 7q86 6 146 6q46 0 53 -4q10 -7 20.5 -28.5t16.5 -28.5q12 -13 12 -30q0 -28 -18 -44.5t-38 -18.5q-25 -5 -53 -8.5t-62.5 -7t-53.5 -5.5q-43 -6 -83 -14t-72 -12t-84 -5h-5q-20 -2 -39.5 11t-19.5 41z " />
<glyph unicode="&#x2013;" horiz-adv-x="1024" d="M169 532q0 15 17.5 34t52.5 19q80 0 132 -5t170 -5q51 2 186.5 16t203.5 14q64 0 102 -19t38 -56q0 -55 -140 -76q-208 -30 -482 -33q-280 0 -280 111z" />
<glyph unicode="&#x2014;" horiz-adv-x="2048" d="M89 498q0 35 7 66.5t19 31.5q15 0 255 -7t371 -7q64 0 709.5 15t706.5 15q29 0 29 -22q0 -5 -2.5 -24.5t-2.5 -32.5q0 -28 -1.5 -40t-10 -23t-27.5 -13q-116 -12 -683 -20.5t-810 -8.5q-455 0 -555 33q-5 3 -5 37z" />
<glyph unicode="&#x2018;" horiz-adv-x="305" d="M440 1091q0 53 29 91q39 53 105.5 102t111.5 49q15 0 22.5 -4t13 -10.5t11.5 -9.5q11 -3 11 -20q0 -13 -9 -21q-7 -5 -39.5 -51.5t-38.5 -61.5q16 -16 16 -41q0 -42 -39 -82t-92 -40q-52 0 -77 29.5t-25 69.5z" />
<glyph unicode="&#x2019;" horiz-adv-x="305" d="M431 1042q0 14 9 21q7 5 39.5 51.5t38.5 61.5q-16 15 -16 40q0 42 38.5 82t91.5 40t77.5 -29t24.5 -69q0 -54 -28 -91q-39 -53 -105.5 -102.5t-111.5 -49.5q-19 0 -31.5 12t-15.5 13q-11 3 -11 20z" />
<glyph unicode="&#x201a;" horiz-adv-x="258" d="M-166 -148q0 14 9 21q7 5 39.5 51.5t38.5 61.5q-16 15 -16 40q0 42 38.5 82t91.5 40t77.5 -29t24.5 -69q0 -54 -28 -91q-39 -53 -105.5 -102.5t-111.5 -49.5q-19 0 -31.5 12t-15.5 13q-11 3 -11 20z" />
<glyph unicode="&#x201c;" horiz-adv-x="591" d="M440 1099q0 53 24 87q38 53 98.5 102t101.5 49q18 0 30.5 -11.5t14.5 -12.5q10 -3 10 -21q0 -13 -8 -20q-7 -5 -36 -51.5t-33 -61.5q15 -15 15 -42q0 -42 -35 -81.5t-84 -39.5q-51 0 -74.5 31t-23.5 72zM726 1092q0 53 28 90q39 52 106 101.5t111 49.5q15 0 22.5 -4 t13.5 -10.5t12 -9.5q11 -3 11 -20q0 -13 -9 -21q-7 -5 -39.5 -51.5t-38.5 -61.5q16 -15 16 -40q0 -43 -39 -83t-92 -40t-77.5 29.5t-24.5 70.5z" />
<glyph unicode="&#x201d;" horiz-adv-x="592" d="M431 1042q0 14 9 21q7 5 39.5 51.5t38.5 61.5q-16 15 -16 40q0 42 38.5 82t91.5 40t77.5 -29t24.5 -69q0 -54 -28 -91q-39 -53 -105.5 -102.5t-111.5 -49.5q-19 0 -31.5 12t-15.5 13q-11 3 -11 20zM742 1039q0 13 7 20q7 5 36.5 51.5t33.5 60.5q-16 16 -16 42q0 43 35 82 t84 39q51 0 75 -30.5t24 -72.5q0 -49 -24 -86q-38 -54 -98.5 -103t-101.5 -49q-18 0 -30.5 12t-14.5 13q-10 3 -10 21z" />
<glyph unicode="&#x201e;" horiz-adv-x="545" d="M-166 -148q0 14 9 21q7 5 39.5 51.5t38.5 61.5q-16 15 -16 40q0 42 38.5 82t91.5 40t77.5 -29t24.5 -69q0 -54 -28 -91q-39 -53 -105.5 -102.5t-111.5 -49.5q-19 0 -31.5 12t-15.5 13q-11 3 -11 20zM145 -151q0 13 7 20q7 5 36.5 51.5t33.5 61.5q-16 16 -16 42 q0 42 35 81t84 39q51 0 75 -30.5t24 -72.5q0 -49 -24 -86q-38 -54 -98.5 -103t-101.5 -49q-18 0 -30.5 12t-14.5 13q-10 3 -10 21z" />
<glyph unicode="&#x2022;" horiz-adv-x="614" d="M320 600q0 88 50.5 156.5t117.5 73.5q4 23 37.5 31t64.5 8q43 0 70 -32t27 -83q0 -48 -34 -116.5t-110 -125.5q-46 -35 -110 -35q-52 0 -82.5 38.5t-30.5 84.5z" />
<glyph unicode="&#x2026;" horiz-adv-x="1425" d="M150 10q0 61 48 108.5t108 47.5q33 0 51 -19t18 -49q0 -56 -47 -108.5t-106 -52.5q-72 0 -72 73zM625 10q0 61 48 108.5t108 47.5q33 0 51 -19t18 -49q0 -56 -47 -108.5t-106 -52.5q-72 0 -72 73zM1100 10q0 61 48 108.5t108 47.5q33 0 51 -19t18 -49q0 -56 -47 -108.5 t-106 -52.5q-72 0 -72 73z" />
<glyph unicode="&#x202f;" horiz-adv-x="398" />
<glyph unicode="&#x2039;" horiz-adv-x="512" d="M167 489q0 34 52 68q28 18 64 40.5t50 31.5t42 28.5t59.5 44.5t81.5 66q2 2 7.5 7t9.5 8.5t10 6.5t12 3q35 0 35 -105q0 -39 -6 -57.5t-29 -32.5q-43 -26 -124.5 -65.5t-114.5 -61.5q11 -61 26.5 -102.5t26.5 -55.5t19 -33t8 -44q0 -56 -25.5 -107t-63.5 -51 q-28 0 -37.5 12t-11.5 43q-9 58 -14 88t-8.5 53.5t-10.5 46t-10.5 34t-17.5 50.5t-23 64q-7 8 -7 20z" />
<glyph unicode="&#x203a;" horiz-adv-x="512" d="M44 180q0 36 13.5 61t42 42t59.5 30t80 35.5t89 48.5q-17 50 -39 98.5t-34 76t-13 46.5q0 54 25.5 113.5t58.5 59.5q14 0 23 -3.5t14 -13.5t7 -16.5t5 -22.5q17 -178 76 -325q12 -17 12 -37q0 -46 -51 -76q-109 -52 -156 -81t-124 -91q-36 -49 -54 -49q-34 0 -34 104z " />
<glyph unicode="&#x205f;" horiz-adv-x="497" />
<glyph unicode="&#x20ac;" horiz-adv-x="993" d="M66 399q0 6 4 17.5t10 26.5l8 20q7 17 52 29.5t81 15.5q6 0 29.5 1.5t37.5 2.5q7 18 34 71q-18 -1 -53 -1h-14q-27 0 -51.5 10.5t-24.5 32.5q0 6 5 17t12 23.5t9 17.5q7 19 52.5 34t75.5 17q29 2 87 4q157 216 368.5 363.5t379.5 147.5q46 0 92.5 -35.5t46.5 -95.5 q0 -59 -38 -123t-92 -112t-115 -79.5t-107 -31.5q-43 0 -72.5 26.5t-29.5 55.5q0 25 19 50.5t40 26.5q-12 -13 -12 -15q0 -5 21 -5q54 0 123 61.5t69 109.5q0 14 -16 14q-63 0 -179 -76t-220 -189q-36 -38 -77 -91q148 -2 204 -2q30 0 44 -6t18 -24t-13 -51 q-10 -22 -32.5 -36.5t-45.5 -15.5q-11 0 -52.5 -2.5t-106 -6t-119.5 -6.5q-22 -36 -42 -72q136 3 239 3q9 0 15 -14t3 -22q-18 -64 -32 -78.5t-63 -17.5l-82 -7q-81 -8 -146 -13q-30 -87 -30 -157q0 -91 70 -91q52 0 130 52.5t144 119t114.5 124t51.5 70.5q2 12 31 12 q15 0 15 -33q0 -26 -25 -124q-5 -22 -35 -65t-81 -95.5t-111 -100t-135.5 -79.5t-145.5 -32q-72 0 -129.5 69.5t-57.5 173.5q0 71 18 145q-54 -2 -78 -2h-14q-27 0 -51.5 10.5t-24.5 32.5z" />
<glyph unicode="&#x2122;" horiz-adv-x="1536" d="M481 748q0 33 29 79t48 62q18 16 39 16q11 0 19 -8q40 54 76.5 108.5t93 141.5t81.5 125q-106 -22 -179 -22q-165 0 -165 85q0 39 30.5 66.5t74.5 27.5q15 0 23 -7.5t8 -19.5t-10 -24q8 0 40.5 0.5t42.5 0.5t38 0.5t40.5 1.5t37 2.5t40.5 4t37 6t41 8.5q40 30 92 54 t94 24q32 0 58 -18.5t26 -50.5q0 -38 -56 -63.5t-132 -38.5q-129 -179 -240 -360q-39 -64 -64.5 -103t-60 -83.5t-65.5 -66t-60 -21.5q-26 0 -51.5 25t-25.5 48zM808 656q0 26 119 201.5t269.5 363.5t221.5 233q24 14 40 14q10 0 18 -4q16 7 31 7q26 0 50.5 -13.5 t24.5 -31.5q0 -17 -37.5 -71.5t-100 -152.5t-106.5 -196q74 69 179 178t181 186.5t111 102.5q11 8 25 8q17 0 45 -7t48 -7q14 -3 24.5 -14t10.5 -25q0 -10 -6 -19t-100.5 -137.5t-179 -248t-125.5 -190.5q60 45 119 118q1 1 7 9.5t11 12.5t11 4q9 0 15 -5.5t9.5 -18 t4.5 -19.5l3 -21q0 -4 2.5 -13.5t2.5 -14.5q0 -19 -16 -40q-34 -45 -113 -104t-118 -59q-42 0 -67 26.5t-25 60.5q0 12 8 32.5t25.5 51.5t33 57.5t43.5 69t43.5 66t46 68.5t38.5 57q-57 -60 -155.5 -169t-171 -188.5t-91.5 -95.5q-13 -12 -34 -12q-27 0 -51.5 20.5 t-24.5 47.5q0 6 14 35.5t40.5 79.5t51.5 97t59 111t52 97q-94 -118 -210.5 -290.5t-172.5 -286.5q-13 -28 -41 -28q-36 0 -64 19.5t-28 47.5z" />
<glyph unicode="&#xe000;" horiz-adv-x="910" d="M0 0v910h910v-910h-910z" />
<glyph unicode="&#xfb01;" horiz-adv-x="1152" d="M-267 -510q0 59 25 135t80.5 182.5t106.5 194t141 236.5l18 30q-28 -5 -40 -5q-18 0 -31 7t-18 18t-7 19t-2 15q0 4 -4 14t-4 14q0 8 8 12q8 7 20.5 24t20.5 24q3 3 13.5 12.5t17.5 15.5t16.5 12.5t15.5 8.5q4 1 24.5 7.5t49 14.5t55.5 13q128 214 265 434.5t218 346.5 t93 140q31 37 86 57t79 19q27 0 27 -22q0 -9 -6 -23q-7 -16 -110 -177.5t-252 -396t-236 -378.5q4 -1 12 -4.5t13 -4.5q216 40 219 41q8 2 14 2q18 0 56.5 -13.5t56.5 -16.5q5 -1 11 -15.5t6 -28.5q0 -26 -21 -30q-5 -1 -28 -6.5t-70.5 -17.5t-86.5 -21q53 -63 53 -125 q0 -80 -63 -196.5t-161 -230.5t-205.5 -215t-206.5 -163.5t-154 -62.5q-40 0 -77.5 25.5t-37.5 78.5zM-100 -425q0 -15 11 -15q20 0 82.5 45.5t141 122t153 163.5t125.5 182.5t51 166.5q0 50 -59 96l-111 -25q-17 -28 -52.5 -88.5t-58 -98.5t-57.5 -98t-58.5 -101t-52 -92.5 t-47 -88t-35.5 -72.5t-25 -60t-8 -37zM747 131q0 44 55 149t110 194t55 93q0 11 -20.5 33t-20.5 33q0 10 41.5 54.5t101 88t98.5 43.5q24 0 49 -28t25 -52q0 -22 -238 -432q-3 -6 -16.5 -26.5t-21 -34t-17.5 -33t-15 -36t-5 -30.5q0 -34 51 -34q41 0 90.5 31.5t85 69.5 t67 69.5t40.5 31.5q26 0 26 -90q0 -30 -6 -43q-49 -100 -156 -161.5t-197 -61.5q-68 0 -125 53t-57 119zM1229 985q0 61 50.5 115.5t111.5 54.5q27 0 43 -15t16 -42q0 -57 -53 -114.5t-109 -57.5q-59 0 -59 59z" />
<glyph unicode="&#xfb02;" horiz-adv-x="1265" d="M-267 -510q0 59 25 135t80.5 182.5t106.5 194t141 236.5l18 30q-28 -5 -40 -5q-18 0 -31 7t-18 18t-7 19t-2 15q0 4 -4 14t-4 14q0 8 8 12q8 7 20.5 24t20.5 24q3 3 13.5 12.5t17.5 15.5t16.5 12.5t15.5 8.5q4 1 24.5 7.5t49 14.5t55.5 13q128 214 265 434.5t218 346.5 t93 140q31 37 86 57t79 19q27 0 27 -22q0 -9 -6 -23q-7 -16 -110 -177.5t-252 -396t-236 -378.5q4 -1 12 -4.5t13 -4.5q216 40 219 41q8 2 14 2q18 0 56.5 -13.5t56.5 -16.5q5 -1 11 -15.5t6 -28.5q0 -26 -21 -30q-5 -1 -28 -6.5t-70.5 -17.5t-86.5 -21q53 -63 53 -125 q0 -80 -63 -196.5t-161 -230.5t-205.5 -215t-206.5 -163.5t-154 -62.5q-40 0 -77.5 25.5t-37.5 78.5zM-100 -425q0 -15 11 -15q20 0 82.5 45.5t141 122t153 163.5t125.5 182.5t51 166.5q0 50 -59 96l-111 -25q-17 -28 -52.5 -88.5t-58 -98.5t-57.5 -98t-58.5 -101t-52 -92.5 t-47 -88t-35.5 -72.5t-25 -60t-8 -37zM837 176q0 195 104.5 458.5t235.5 448.5q295 418 451 418q48 0 84.5 -28.5t36.5 -75.5q0 -65 -62 -184.5t-149 -244t-197 -264.5t-190 -234t-144 -165q-1 -12 -8.5 -44.5t-7.5 -51.5q0 -47 30.5 -73.5t77.5 -26.5q43 0 94.5 32t89.5 71 t73.5 71t48.5 32q26 0 26 -73v-20q0 -21 -8 -40t-14.5 -27t-24.5 -28q-62 -70 -161.5 -118t-190.5 -48q-97 0 -146 57.5t-49 157.5zM1048 532q118 140 326.5 436.5t208.5 366.5q0 15 -10 15q-35 0 -184 -200t-193 -280q-89 -158 -148 -338z" />
</font>
</defs>
</svg>
